Правила форума

  • В этом разделе создание новых тем Запрещено.
  • Для создания новых тем пользуйтесь Корневым разделом DVD и HD фильмы.
Начать новую темуОтветить на тему  [ 1 сообщение ] 
Торрент файл
Размер: 4.37 GB • Зарегистрирован: 4 года 3 месяца • Статус: Проверено
Скачан: 49 раз • Желающих скачать: 0 • Поблагодарили: 6 раз
 Раздают: 0  |  0 KB/s  ]   Качают: 0  |  0 KB/s  ] 
 Полного источника не было 2 года 9 месяцев 
Сообщения
 Добавлено: 2012-09-08 18:27
Книголюб
Аватара пользователя
Стаж: 7 лет 2 месяца
Сообщений: 2823
Спасибок: 48828
Лайков: 73
Три метра над уровнем неба: Я тебя хочу
Tengo ganas de ti

Изображение


Год выпуска: 2012
Страна: Испания
Жанр: драма, мелодрама
Продолжительность: 02:03:33
Перевод: Профессиональный (дубляж)

Режиссёр: Фернандо Гонзалез Молина
В ролях: Марио Касас, Мария Вальверде, Клара Лаго, Андреа Дуро, Альваро Сервантес, Диего Мартин, Марина Салас, Нереа Камачо, Луис Фернандез, Ману Фульола, Антонио Веласкез, Карме Элиас
Описание: Проведя два года в Лондоне, Аче возвращается домой, чтобы начать новую жизнь: устроиться на работу, завести новых друзей. Однако многое изменилось и встреча с Джин заставляет Аче почувствовать то, что он чувствовал только к Баби — своей первой большой и настоящей любви…
Мировая премьера: 22 июня 2012
Премьера в России: 5 сентября 2012, «Кармен Видео», «ВС трейд»
Изображение 6.913 15 560

Качество: HQRip 1080p
Формат: MKV
Видео кодек: H.264
Аудио кодек: AC3 (Dolby Digital)
Видео: 1920x800 23.976fps 4 675 Kbps 0.127Bits/Pixel
Аудио #1: 48000Hz 6ch 384 Kbps
MediaInfo
General
Unique ID : 194062394551233772832465721326366330531 (0x91FF0EC3C2BCE474AC0DAC18EEE38EA3)
Complete name : K:\Torrent\Tengo.ganas.de.ti..mkv
Format : Matroska
Format version : Version 2
File size : 4.37 GiB
Duration : 2h 3mn
Overall bit rate : 5 060 Kbps
Encoded date : UTC 2012-09-01 04:20:47
Writing application : mkvmerge v5.5.0 ('Healer') built on Apr 6 2012 21:43:24
Writing library : libebml v1.2.3 + libmatroska v1.3.0

Video
ID : 1
Format : AVC
Format/Info : Advanced Video Codec
Format profile : High@L4.0
Format settings, CABAC : Yes
Format settings, ReFrames : 4 frames
Codec ID : V_MPEG4/ISO/AVC
Duration : 2h 3mn
Bit rate : 4 675 Kbps
Width : 1 920 pixels
Height : 800 pixels
Display aspect ratio : 2.40:1
Frame rate : 23.976 fps
Color space : YUV
Chroma subsampling : 4:2:0
Bit depth : 8 bits
Scan type : Progressive
Bits/(Pixel*Frame) : 0.127
Stream size : 3.95 GiB (90%)
Title : Три метра над уровнем неба: Я тебя хочу
Writing library : x264 core 125 r2208 d9d2288
Encoding settings : cabac=1 / ref=3 / deblock=1:0:0 / analyse=0x3:0x133 / me=hex / subme=7 / psy=1 / psy_rd=1.00:0.00 / mixed_ref=1 / me_range=16 / chroma_me=1 / trellis=1 / 8x8dct=1 / cqm=0 / deadzone=21,11 / fast_pskip=0 / chroma_qp_offset=-2 / threads=12 / lookahead_threads=2 / sliced_threads=0 / nr=0 / decimate=1 / interlaced=0 / bluray_compat=0 / constrained_intra=0 / bframes=3 / b_pyramid=2 / b_adapt=1 / b_bias=0 / direct=1 / weightb=1 / open_gop=0 / weightp=2 / keyint=240 / keyint_min=23 / scenecut=40 / intra_refresh=0 / rc_lookahead=40 / rc=2pass / mbtree=1 / bitrate=4675 / ratetol=1.0 / qcomp=0.60 / qpmin=0 / qpmax=69 / qpstep=4 / cplxblur=20.0 / qblur=0.5 / ip_ratio=1.40 / aq=1:1.00
Language : English
Default : Yes
Forced : No

Audio
ID : 2
Format : AC-3
Format/Info : Audio Coding 3
Mode extension : CM (complete main)
Codec ID : A_AC3
Duration : 2h 3mn
Bit rate mode : Constant
Bit rate : 384 Kbps
Channel(s) : 6 channels
Channel positions : Front: L C R, Side: L R, LFE
Sampling rate : 48.0 KHz
Bit depth : 16 bits
Compression mode : Lossy
Stream size : 339 MiB (8%)
Title : Дубляж
Language : Russian
Default : Yes
Forced : No


Свернуть

Скриншоты
Изображение
Изображение
Изображение
Свернуть
Не в сети
Профиль  
Начать новую темуОтветить на тему  [ 1 сообщение ] 
Вы не можете начинать темы
Вы не можете отвечать на сообщения
Вы не можете редактировать свои сообщения
Вы не можете удалять свои сообщения