Правила форума

  • В этом разделе создание новых тем Запрещено.
  • Для создания новых тем пользуйтесь Корневым разделом DVD и HD фильмы.
Начать новую темуОтветить на тему  [ Сообщений: 4 ] 
Торрент файл
Размер: 7.75 GB • Зарегистрирован: 5 лет 2 месяца • Статус: Проверено
Скачан: 92 раза • Желающих скачать: 0 • Поблагодарили: 29 раз
 Раздают: 0  |  0 KB/s  ]   Качают: 1  |  0 KB/s  ] 
 Полного источника не было 3 года 2 месяца 
Сообщения
 Добавлено: 2011-09-21 20:28
Top-seeder
Аватара пользователя
Стаж: 9 лет
Сообщений: 1399
Спасибок: 28653
Лайков: 8
Три орешка для Золушки / Tri orisky pro Popelku / Drei Haselnusse fur Aschenbrodel

Изображение


Перевод: Профессиональный (полное дублирование)
Субтитры: русские, немецкие, английские
Формат: BDRip, MKV, H.264, AC3/DTS
Страна: Чехословакия, Германия (ГДР)
Режиссер: Вацлав Ворличек
Жанр: фэнтези, драма, мелодрама, приключения, семейный
Продолжительность: 01:22:16
Год выпуска: 1973

В ролях: Либуше Шафранкова, Павел Травничек, Карола Браунбок, Рольф Хоппе, Карин Леш, Дана Главачова, Ян Либичек, Витезслав Яндак, Ярослав Дрбоглав и др.

Описание: Мачеха Золушки всеми силами хочет выдать свою глупую и злую родную дочь замуж за принца. Но тому совсем не хочется жениться. Он ссорится с отцом и собирается покинуть дворец, но… в последний момент он влюбляется в очаровательную незнакомку в маске, которая быстро исчезает. Принц и не догадывается, что эта прекрасная девушка, ловкий стрелок, которого он встретил в лесу и озорная девчонка — одно и то же лицо. Все эти превращения оказались возможными благодаря волшебным орешкам, в одном из которых находился и свадебный подарок для Золушки.

Видео: 1920x1080p (16:9), 25 fps, AVC MPEG-4 (x264), High@L4.1 ~11.0 Mbps avg, 0.212 bit/pixel
Аудио#1: Русский: 48 kHz, AC3, 2 ch, ~384 kbps avg, [Профессиональный (полное дублирование)]
Аудио#2: Русский: 48 kHz, AC3, 2 ch, ~192 kbps avg, [Профессиональный (многоголосый, закадровый)]
Аудио#3: Чешский: 48 kHz, AC3, 2 ch, ~192 kbps avg.
Аудио#4: Немецкий: 48 kHz, DTS, 6 ch, ~1 510 kbps avg.

Знаете ли Вы, что...
Во многих странах Европы, например, в Германии и Норвегии, эту сказку каждый год, уже более 30 лет, традиционно показывают по телевидению на Рождество.
Песню к кинофильму, являющуюся также и главной музыкальной темой, исполнил хорошо известный в СССР знаменитый чехословацкий эстрадный певец Карел Готт.
Свернуть

MediaInfo
Общее
Уникальный идентификатор : 235057908210475378691651463508251234089 (0xB0D681A4011E6082BC55C658879DCF29)
Полное имя : D:\Закачки\Три орешка для Золушки.mkv
Формат : Matroska
Размер файла : 7,75 Гбайт
Продолжительность : 1 ч. 22 м.
Общий поток : 13,4 Мбит/сек
Дата кодирования : UTC 2011-09-20 15:40:26
Программа кодирования : mkvmerge v3.3.0 ('Language') built on Mar 24 2010 14:59:24
Библиотека кодирования : libebml v0.8.0 + libmatroska v0.9.0

Видео
Идентификатор : 1
Формат : AVC
Формат/Информация : Advanced Video Codec
Профиль формата : High@L4.1
Параметр CABAC формата : Да
Параметр ReFrames формата : 4 кадра
Параметры GOP формата : M=1, N=47
Идентификатор кодека : V_MPEG4/ISO/AVC
Продолжительность : 1 ч. 22 м.
Вид битрейта : Переменный
Битрейт : 11,0 Мбит/сек
Максимальный битрейт : 24,0 Мбит/сек
Ширина : 1920 пикс.
Высота : 1080 пикс.
Соотношение сторон : 16:9
Частота кадров : 25,000 кадр/сек
Цветовое пространство : YUV
Подвыборка цветности : 4:2:0
Битовая глубина : 8 бит
Тип развёртки : Прогрессивная
Бит/(Пиксели*Кадры) : 0.212
Размер потока : 6,28 Гбайт (81%)
Заголовок : Tři oříšky pro Popelku
Библиотека кодирования : x264 core 116
Настройки программы : cabac=1 / ref=4 / deblock=1:-1:-1 / analyse=0x3:0x113 / me=umh / subme=9 / psy=1 / psy_rd=1.00:0.00 / mixed_ref=1 / me_range=16 / chroma_me=1 / trellis=1 / 8x8dct=1 / cqm=0 / deadzone=21,11 / fast_pskip=1 / chroma_qp_offset=-2 / threads=6 / sliced_threads=0 / slices=4 / nr=0 / decimate=1 / interlaced=0 / bluray_compat=0 / constrained_intra=0 / bframes=3 / b_pyramid=0 / b_adapt=2 / b_bias=0 / direct=3 / weightb=1 / open_gop=0 / weightp=0 / keyint=48 / keyint_min=1 / scenecut=40 / intra_refresh=0 / rc_lookahead=48 / rc=abr / mbtree=1 / bitrate=11000 / ratetol=1000000000.0 / qcomp=0.75 / qpmin=3 / qpmax=69 / qpstep=4 / vbv_maxrate=24000 / vbv_bufsize=30000 / nal_hrd=vbr / ip_ratio=1.25 / aq=2:1.00
Основные цвета : BT.709-5, BT.1361, IEC 61966-2-4, SMPTE RP177
Характеристики трансфера : BT.709-5, BT.1361
Коэффициенты матрицы : BT.709-5, BT.1361, IEC 61966-2-4 709, SMPTE RP177

Аудио #1
Идентификатор : 2
Формат : AC-3
Формат/Информация : Audio Coding 3
Расширение режима : CM (complete main)
Идентификатор кодека : A_AC3
Продолжительность : 1 ч. 22 м.
Вид битрейта : Постоянный
Битрейт : 384 Кбит/сек
Каналы : 2 канала
Расположение каналов : Front: L R
Частота : 48,0 КГц
Битовая глубина : 16 бит
Метод сжатия : С потерями
Размер потока : 228 Мбайт (3%)
Заголовок : Дубляж
Язык : Russian

Аудио #2
Идентификатор : 3
Формат : AC-3
Формат/Информация : Audio Coding 3
Расширение режима : CM (complete main)
Идентификатор кодека : A_AC3
Продолжительность : 1 ч. 22 м.
Вид битрейта : Постоянный
Битрейт : 192 Кбит/сек
Каналы : 2 канала
Расположение каналов : Front: L R
Частота : 48,0 КГц
Битовая глубина : 16 бит
Метод сжатия : С потерями
Размер потока : 114 Мбайт (1%)
Язык : Russian

Аудио #3
Идентификатор : 4
Формат : AC-3
Формат/Информация : Audio Coding 3
Расширение режима : CM (complete main)
Идентификатор кодека : A_AC3
Продолжительность : 1 ч. 22 м.
Вид битрейта : Постоянный
Битрейт : 192 Кбит/сек
Каналы : 2 канала
Расположение каналов : Front: L R
Частота : 48,0 КГц
Битовая глубина : 16 бит
Метод сжатия : С потерями
Размер потока : 114 Мбайт (1%)
Язык : Czech

Аудио #4
Идентификатор : 5
Формат : DTS
Формат/Информация : Digital Theater Systems
Идентификатор кодека : A_DTS
Продолжительность : 1 ч. 22 м.
Вид битрейта : Постоянный
Битрейт : 1510 Кбит/сек
Каналы : 6 каналов
Расположение каналов : Front: L C R, Side: L R, LFE
Частота : 48,0 КГц
Битовая глубина : 24 бит
Метод сжатия : С потерями
Размер потока : 895 Мбайт (11%)
Язык : German

Текст #1
Идентификатор : 6
Формат : UTF-8
Идентификатор кодека : S_TEXT/UTF8
Идентификатор кодека/Информация : UTF-8 Plain Text
Язык : Russian

Текст #2
Идентификатор : 7
Формат : UTF-8
Идентификатор кодека : S_TEXT/UTF8
Идентификатор кодека/Информация : UTF-8 Plain Text
Язык : German

Текст #3
Идентификатор : 8
Формат : UTF-8
Идентификатор кодека : S_TEXT/UTF8
Идентификатор кодека/Информация : UTF-8 Plain Text
Язык : English

Свернуть

Скриншоты
ИзображениеИзображениеИзображение
Свернуть
Не в сети
Профиль  
 Добавлено: 2011-09-21 21:07 (спустя 39 минут)
Аватара пользователя
Стаж: 8 лет 3 месяца
Возраст: 43
Сообщений: 3290
Спасибок: 21012
Лайков: 3
Временно в объявления :co_ol:
_________________
Изображение
Не в сети
Профиль  
 Добавлено: 2011-12-25 13:30 (спустя 3 месяца 3 дня)
Аватара пользователя
Стаж: 8 лет 3 месяца
Возраст: 43
Сообщений: 3290
Спасибок: 21012
Лайков: 3
пора отлеплять :(
_________________
Изображение
Не в сети
Профиль  
 Добавлено: 2012-11-04 15:26 (спустя 10 месяцев)
Стаж: 5 лет 2 месяца
Сообщений: 4
дайте оребят скорости плиз !!!! :(
Не в сети
Профиль  
Начать новую темуОтветить на тему  [ Сообщений: 4 ] 
Вы не можете начинать темы
Вы не можете отвечать на сообщения
Вы не можете редактировать свои сообщения
Вы не можете удалять свои сообщения
cron