Правила форума

  • В этом разделе создание новых тем Запрещено.
  • Для создания новых тем пользуйтесь Корневым разделом DVD и HD фильмы.
Начать новую темуОтветить на тему  [ Сообщений: 5 ] 
Торрент файл
Размер: 8.61 GB • Зарегистрирован: 4 года 5 месяцев • Статус: Проверено
Скачан: 66 раз • Желающих скачать: 0 • Поблагодарили: 17 раз
 Раздают: 1  |  0 KB/s  ]   Качают: 0  |  0 KB/s  ] 
Сообщения
 Добавлено: 2012-07-01 11:45
Top-releaser
Аватара пользователя
Стаж: 6 лет 7 месяцев
Сообщений: 2078
Спасибок: 3230
Лайков: 9
Тринадцатый этаж / The Thirteenth Floor

Изображение


Год выпуска: 1999
Страна: Германия, США
Жанр: фантастический триллер
Продолжительность: 01:40:30
Перевод: Профессиональный (полное дублирование)

Режиссёр: Джозеф Руснак
В ролях: Крэйг Бирко, Армин Мюллер-Шталь, Гретхен Мол, Винсент Д`Онофрио, Деннис Хейсбёрт, Steven Schub, Джереми Робертс, Риф Хаттон, Леон Риппи, Джанет МакЛахлан.
Описание: Команда ученых создает суперкомпьютер, способный полностью симулировать реальный мир на замкнутом его участке. Ханон Фуллер, отец-основатель проекта, восстанавливает внутри машины город своего детства, Лос-Анджелес 1937-го года. Когда человек подключается к такому миру, его разум занимает тело одного из обитателей мира, до того самостоятельного. После того же, как разум-гость покидает тело, обитатель симуляции просыпается, и продолжает жить ни о чём не подозревая. Персонажи симуляции считают себя абсолютно реальными — оставаясь при этом компьютерными моделями. Загадки возникают когда Фуллер ночью звонит главному герою, участнику проекта Дагласу Холлу, и просит срочно приехать, чтобы узнать некую очень важную информацию касательно симуляции мира, однако их встреча не состоится. Утром когда Холл просыпается, на его автоответчике детектив из полиции просит с ним связаться чтобы прояснить обстоятельства смерти Фуллера. Единственная зацепка Холла — бар в виртуальном Лос-Анджелесе, где Фуллер оставил Холлу личное письмо…

Раздача группы: Изображение

Качество: BDRip
Формат: MKV
Видео кодек: H.264
Аудио кодек: AC3 (Dolby Digital)
Видео: 1920x800, 23.976 fps, x264@L4.1 ~9727 kbps
Аудио #1: Русский: 48 kHz, AC3, 3/2 (L,C,R,l,r) + LFE ch, ~640.00 kbps avg (Дубляж, Blu-ray CEE)
Аудио #2: Русский: 48 kHz, AC3, 3/2 (L,C,R,l,r) + LFE ch, ~384.00 kbps avg (Многоголосый закадровый, R5)
Аудио #3: English: 48 kHz, DTS, 3/2 (L,C,R,l,r) + LFE ch, 1536.00 Kbps avg
Субтитры: Русские, Английские

MediaInfo
Общее
Уникальный идентификатор : 226675111183259570462674068601822438471 (0xAA8809D662B64E2AB37F089FAF96E447)
Полное имя : D:\Тринадцатый этаж\The.Thirteenth.Floor.1999.1080p.BluRay.DTS.x264-Prestige.RUS.mkv
Формат : Matroska
Версия формата : Version 2
Размер файла : 8,61 Гбайт
Продолжительность : 1 ч. 40 м.
Общий поток : 12,3 Мбит/сек
Название фильма : _WIDOK_
Дата кодирования : UTC 2009-05-21 15:42:14
Программа кодирования : mkvmerge v2.8.0 ('The Tree') built on May 9 2009 18:02:06
Библиотека кодирования : libebml v0.7.7 + libmatroska v0.8.1

Видео
Идентификатор : 1
Формат : AVC
Формат/Информация : Advanced Video Codec
Профиль формата : High@L4.1
Параметр CABAC формата : Да
Параметр ReFrames формата : 5 кадров
Идентификатор кодека : V_MPEG4/ISO/AVC
Продолжительность : 1 ч. 40 м.
Битрейт : 9727 Кбит/сек
Ширина : 1920 пикселей
Высота : 800 пикселей
Соотношение сторон : 2,40:1
Частота кадров : 23,976 кадра/сек
Цветовое пространство : YUV
Субдискретизация насыщенности : 4:2:0
Битовая глубина : 8 бит
Тип развёртки : Прогрессивная
Бит/(Пиксели*Кадры) : 0.264
Размер потока : 6,66 Гбайт (77%)
Заголовок : Video @ 9727 Kbps (by Prestige)
Библиотека кодирования : x264 core 67 r1139M 1024283
Настройки программы : cabac=1 / ref=5 / deblock=1:-3:-3 / analyse=0x3:0x133 / me=umh / subme=9 / psy_rd=1.2:0.0 / mixed_ref=1 / me_range=32 / chroma_me=1 / trellis=2 / 8x8dct=1 / cqm=0 / deadzone=21,11 / chroma_qp_offset=-4 / threads=6 / nr=0 / decimate=1 / mbaff=0 / bframes=10 / b_pyramid=1 / b_adapt=2 / b_bias=0 / direct=1 / wpredb=1 / keyint=250 / keyint_min=25 / scenecut=40 / rc=2pass / bitrate=9727 / ratetol=1.0 / qcomp=0.60 / qpmin=10 / qpmax=51 / qpstep=4 / cplxblur=20.0 / qblur=0.5 / ip_ratio=1.40 / pb_ratio=1.30 / aq=1:1.00
Default : Да
Forced : Нет

Аудио #1
Идентификатор : 2
Формат : AC-3
Формат/Информация : Audio Coding 3
Расширение режима : CM (complete main)
Параметр Endianness формата : Big
Идентификатор кодека : A_AC3
Продолжительность : 1 ч. 40 м.
Вид битрейта : Постоянный
Битрейт : 640 Кбит/сек
Каналы : 6 каналов
Расположение каналов : Front: L C R, Side: L R, LFE
Частота : 48,0 КГц
Битовая глубина : 16 бит
Метод сжатия : С потерями
Размер потока : 460 Мбайт (5%)
Заголовок : Dubbed @ 640 kbps (from BD CCE)
Язык : Russian
Default : Да
Forced : Нет

Аудио #2
Идентификатор : 3
Формат : AC-3
Формат/Информация : Audio Coding 3
Расширение режима : CM (complete main)
Параметр Endianness формата : Big
Идентификатор кодека : A_AC3
Продолжительность : 1 ч. 40 м.
Вид битрейта : Постоянный
Битрейт : 384 Кбит/сек
Каналы : 6 каналов
Расположение каналов : Front: L C R, Side: L R, LFE
Частота : 48,0 КГц
Битовая глубина : 16 бит
Метод сжатия : С потерями
Размер потока : 276 Мбайт (3%)
Заголовок : MVO
Язык : Russian
Default : Нет
Forced : Нет

Аудио #3
Идентификатор : 4
Формат : DTS
Формат/Информация : Digital Theater Systems
Идентификатор кодека : A_DTS
Продолжительность : 1 ч. 40 м.
Вид битрейта : Постоянный
Битрейт : 1510 Кбит/сек
Каналы : 6 каналов
Расположение каналов : Front: L C R, Side: L R, LFE
Частота : 48,0 КГц
Битовая глубина : 24 бит
Метод сжатия : С потерями
Размер потока : 1,06 Гбайт (12%)
Заголовок : DTS 5.1 @ 1536 kbps
Язык : English
Default : Нет
Forced : Нет

Текст #1
Идентификатор : 5
Формат : UTF-8
Идентификатор кодека : S_TEXT/UTF8
Идентификатор кодека/Информация : UTF-8 Plain Text
Заголовок : Russian
Язык : Russian
Default : Да
Forced : Нет

Текст #2
Идентификатор : 6
Формат : UTF-8
Идентификатор кодека : S_TEXT/UTF8
Идентификатор кодека/Информация : UTF-8 Plain Text
Заголовок : English
Язык : English
Default : Нет
Forced : Нет
Свернуть
Скриншоты
Изображение

Изображение

Изображение

Изображение
Свернуть
Не в сети
Профиль  
 Добавлено: 2012-07-05 20:48 (спустя 4 дня)
Стаж: 7 лет 6 месяцев
Возраст: 32
Сообщений: 71
Лайков: 1
харош фильмец, пересмотрю еще раз)))
Не в сети
Профиль  
 Добавлено: 2012-07-06 12:55 (спустя 16 часов)
Стаж: 7 лет 2 месяца
Сообщений: 81
Скачал и не заметил что 99 год.Фильм понравился.
Спасибо за качество.
Не в сети
Профиль  
 Добавлено: 2012-07-06 13:10 (спустя 14 минут)
Top-releaser
Аватара пользователя
Стаж: 6 лет 7 месяцев
Сообщений: 2078
Спасибок: 3230
Лайков: 9
Toliknub
не смотрите фильмы прошлого века? :hi_hi_hi:
Не в сети
Профиль  
 Добавлено: 2012-07-07 23:48 (спустя 1 день 10 часов)
Стаж: 7 лет 2 месяца
Сообщений: 81

yyuuii1223:

Toliknub
не смотрите фильмы прошлого века? :hi_hi_hi:
при просмотре не почувствовал что это фильм прошлого века

По фильму мысль появилась:
Вам надоел ваш муж,создайте в виртуальной реальности себе идеального мужа,вселите в него нынешнего мужа и убейте его,тогда в реальности будет идеальный муж которого вы сами создали.
Не в сети
Профиль  
Начать новую темуОтветить на тему  [ Сообщений: 5 ] 
Вы не можете начинать темы
Вы не можете отвечать на сообщения
Вы не можете редактировать свои сообщения
Вы не можете удалять свои сообщения