Правила форума

  • В этом разделе создание новых тем Запрещено.
  • Для создания новых тем пользуйтесь Корневым разделом DVD и HD фильмы.
Начать новую темуОтветить на тему  [ Сообщений: 6 ] 
Торрент файл
Размер: 4.67 GB • Зарегистрирован: 3 года 5 месяцев • Статус: T Временный релиз
Скачан: 49 раз • Желающих скачать: 0 • Поблагодарили: 11 раз
 Раздают: 0  |  0 KB/s  ]   Качают: 0  |  0 KB/s  ] 
 Полного источника не было 11 месяцев 
Сообщения
 Добавлено: 2013-06-07 16:21
Аватара пользователя
Стаж: 8 лет 3 месяца
Возраст: 29
Сообщений: 234
Спасибок: 1724
Лайков: 11
Трое в Нью-Йорке / Поколение М / Generation Um...

Изображение


Год выпуска: 2012
Страна: США (Voltage Pictures, Company Films, Generation Um)
Жанр: Драма
Продолжительность: 01:36:55
Перевод: Любительское (одноголосое) [den904] + Оригинальная звуковая дорожка

Режиссёр: Марк Манн
В ролях: Киану Ривз, Бояна Новакович, Эделейд Клеменс, Джэйк Хоффман, Эшли Остин Моррис, Карен Оливо, Иван Мартин, Джозеф Басиле, Узиманн, Кай Чэпман
Описание: Фильм о трех жителях Нью-Йорка, «поглощенных сексом, наркотиками и собственной неуверенностью»...Уверен, что в Нью-Йорке гораздо больше жителей «поглощенных сексом, наркотиками и собственной неуверенностью».


Качество: BDRip 720p
Формат: MKV
Видео кодек: H264 (AVC)
Аудио кодек: AC3 (Dolby Digital)
Видео: MPEG-4 AVC, 5684 Кбит/с, 1280 x 690 (1.855) at 23.976 fps
Аудио #1: Русский (AC3, 6 ch, 448 Кбит/с) [Любительское (одноголосое) [den904]]
Аудио #2: английский (DTS, 6 ch, 768 Кбит/с) [Оригинальная звуковая дорожка]
Скриншоты
Общее
Полное имя : Generation.Um.2012.BluRay.720p.mkv
Формат : Matroska
Версия формата : Version 4 / Version 2
Размер файла : 4,67 Гбайт
Продолжительность : 1 ч. 36 м.
Общий поток : 6899 Кбит/сек
Название фильма : CINEMANIA.CC
Дата кодирования : UTC 2013-06-06 14:19:10
Программа кодирования : mkvmerge v6.2.0 ('Promised Land') built on Apr 28 2013 12:22:01
Библиотека кодирования : libebml v1.3.0 + libmatroska v1.4.0
Attachment : Yes

Видео
Идентификатор : 1
Формат : AVC
Формат/Информация : Advanced Video Codec
Профиль формата : High@L4.1
Параметр CABAC формата : Да
Параметр ReFrames формата : 5 кадров
Идентификатор кодека : V_MPEG4/ISO/AVC
Продолжительность : 1 ч. 36 м.
Битрейт : 5684 Кбит/сек
Ширина : 1280 пикселей
Высота : 690 пикселей
Соотношение сторон : 1,85:1
Режим частоты кадров : Постоянный
Частота кадров : 23,976 кадра/сек
Цветовое пространство : YUV
Субдискретизация насыщенности : 4:2:0
Битовая глубина : 8 бит
Тип развёртки : Прогрессивная
Бит/(Пиксели*Кадры) : 0.268
Размер потока : 3,75 Гбайт (80%)

Аудио #1
Идентификатор : 2
Формат : AC-3
Формат/Информация : Audio Coding 3
Расширение режима : CM (complete main)
Параметр Endianness формата : Big
Идентификатор кодека : A_AC3
Продолжительность : 1 ч. 36 м.
Вид битрейта : Постоянный
Битрейт : 448 Кбит/сек
Каналы : 6 каналов
Расположение каналов : Front: L C R, Side: L R, LFE
Частота : 48,0 КГц
Битовая глубина : 16 бит
Метод сжатия : С потерями
Размер потока : 311 Мбайт (6%)
Заголовок : den904
Язык : Russian
Default : Да
Forced : Нет

Аудио #2
Идентификатор : 3
Формат : DTS
Формат/Информация : Digital Theater Systems
Режим : 16
Параметр Endianness формата : Big
Идентификатор кодека : A_DTS
Продолжительность : 1 ч. 36 м.
Вид битрейта : Постоянный
Битрейт : 768 Кбит/сек
Каналы : 6 каналов
Расположение каналов : Front: L C R, Side: L R, LFE
Частота : 48,0 КГц
Битовая глубина : 24 бит
Метод сжатия : С потерями
Размер потока : 532 Мбайт (11%)
Язык : English
Свернуть


Скриншоты
Изображение

Изображение

Изображение

Изображение
Свернуть
_________________
Изображение


С уважением
Александр.


Последний раз редактировалось keep922 2013-06-10 17:15, всего редактировалось 2 раз(а).
Не в сети
Профиль  
 Добавлено: 2013-06-07 17:34 (спустя 1 час 12 минут)
Аватара пользователя
Стаж: 8 лет 7 месяцев
Возраст: 30
Сообщений: 407
Спасибок: 487
Лайков: 1
Что-то большеват размер для "матрешки"(
Не в сети
Профиль  
 Добавлено: 2013-06-10 15:13 (спустя 2 дня 21 час)
Модератор
Аватара пользователя
Стаж: 8 лет 11 месяцев
Сообщений: 516
Спасибок: 26888
Лайков: 1
Внимание: Для DVD и HD-разделов необходимы развернутые технические данные:
Для HD: Отчет MediaInfo или BDInfo (под спойлером)
Для HD и HQRip-ов необходимы скриншоты в формате PNG, для остальных форматов PNG так же рекомендуется.
Не в сети
Профиль  
 Добавлено: 2013-06-10 17:16 (спустя 2 часа 3 минуты)
Аватара пользователя
Стаж: 8 лет 3 месяца
Возраст: 29
Сообщений: 234
Спасибок: 1724
Лайков: 11

-=Elis=-:

Внимание: Для DVD и HD-разделов необходимы развернутые технические данные:
Для HD: Отчет MediaInfo или BDInfo (под спойлером)
Для HD и HQRip-ов необходимы скриншоты в формате PNG, для остальных форматов PNG так же рекомендуется.
Исправлено
_________________
Изображение


С уважением
Александр.
Не в сети
Профиль  
 Добавлено: 2013-06-11 14:11 (спустя 20 часов)
Аватара пользователя
Стаж: 7 лет 10 месяцев
Сообщений: 33
никто не в курсе, дубляж будет?
Не в сети
Профиль  
 Добавлено: 2013-06-12 00:15 (спустя 10 часов)
Стаж: 7 лет 2 месяца
Сообщений: 81
без дублежа смотрибельно
смотрел из за ривза
типа арт хаус и все дела

вот о чем о думал в начале фильма в моменте где он сидел на скамейке и лопал кекс,о чем?
не многословен во все фильме
в кафе,вид с камеры,он играл роль,наверное играл
весь фильм,весь,думал о том кто он и чем занимается.конец расставил все по местам.
Не в сети
Профиль  
Начать новую темуОтветить на тему  [ Сообщений: 6 ] 
Вы не можете начинать темы
Вы не можете отвечать на сообщения
Вы не можете редактировать свои сообщения
Вы не можете удалять свои сообщения