Правила форума

  • В этом разделе создание новых тем Запрещено.
  • Для создания новых тем пользуйтесь Корневым разделом DVD и HD фильмы.
Начать новую темуОтветить на тему  [ Сообщений: 3 ] 
Торрент файл
Размер: 4.6 GB • Зарегистрирован: 5 лет 7 месяцев • Статус: Проверено
Скачан: 172 раза • Желающих скачать: 0 • Поблагодарили: 30 раз
 Раздают: 0  |  0 KB/s  ]   Качают: 0  |  0 KB/s  ] 
 Полного источника не было 2 дня 1 час 
Сообщения
 Добавлено: 2011-04-30 20:04
Top-seeder
Аватара пользователя
Стаж: 9 лет
Сообщений: 1399
Спасибок: 28652
Лайков: 8
Тройной форсаж: Токийский Дрифт / The Fast and the Furious: Tokyo Drift

Изображение


Год выпуска: 2006
Страна: США, Германия
Жанр: боевик, триллер, драма, криминал
Продолжительность: 01:44:14
Перевод: Профессиональный (дубляж)
Субтитры: русские, английские

Режиссёр: Джастин Лин
В ролях: Лукас Блэк, Бау Вау, Брайан Ти, Санг Кенг, Брэндон Брендел, Дэниэл Буко, Дэвид Томас, Эмбер Стивенс, Ашика Гонья, Кристиан Салазар.
Описание: Очередной эпизод автомобильной серии «Форсаж» сменил главных героев. Теперь сюжет закручен вокруг Шона Босуэлла – одинокого парня, пытающегося показаться профессионалом уличных гонок. Он что есть мочи гоняет по улицам своего города, стремясь вырваться из пелены житейских невзгод и по пути собирая себе врагов в лице местных властей. Когда над Шоном нависает угроза тюрьмы, его отправляют к отцу, кадровому военному, проходящему службу на японской военной базе. Шон оказывается в незнакомой чужой стране, живущей согласно своим законам…
Изображение 6.680

Качество: BDRip, 720p
Формат: MKV
Видео кодек: H264 (AVC)
Аудио кодек: AC3 (Dolby Digital)
Видео: 1280 x 544 (2.353) at 23.976 fps AVC at 4 417 Кбит/сек
Аудио #1: Русский AC-3 at 384 Кбит/сек [Профессиональный (дубляж)
Аудио #2: Английский DTS at 1 536 Кбит/сек]
Скриншоты
Изображение
Изображение
Изображение
Изображение
Изображение
Свернуть


MediaInfo
Общее
Уникальный идентификатор : 175995860364502080079205751832242353737 (0x846791DB8E81F482B73BACCA588CF649)
Полное имя : D:\Закачки\Тройной форсаж.mkv
Формат : Matroska
Размер файла : 4,60 Гбайт
Продолжительность : 1 ч. 44 м.
Общий поток : 6315 Кбит/сек
Название фильма : HQ-Films
Дата кодирования : UTC 2009-04-12 17:01:06
Программа кодирования : mkvmerge v2.4.0 ('Fumbling Towards Ecstasy') built on Oct 11 2008 20:13:15
Библиотека кодирования : libebml v0.7.7 + libmatroska v0.8.1
Обложка : Yes / Yes / Yes

Видео
Идентификатор : 1
Формат : AVC
Формат/Информация : Advanced Video Codec
Профиль формата : High@L5.1
Параметр CABAC формата : Да
Параметр ReFrames формата : 12 кадров
Параметры GOP формата : M=1, N=24
Идентификатор кодека : V_MPEG4/ISO/AVC
Продолжительность : 1 ч. 44 м.
Битрейт : 4417 Кбит/сек
Ширина : 1280 пикс.
Высота : 544 пикс.
Соотношение сторон : 2,35:1
Частота кадров : 23,976 кадр/сек
Цветовое пространство : YUV
Подвыборка цветности : 4:2:0
Битовая глубина : 8 бит
Тип развёртки : Прогрессивная
Бит/(Пиксели*Кадры) : 0.265
Размер потока : 3,13 Гбайт (68%)
Библиотека кодирования : x264 core 67 r1134M b8808bf
Настройки программы : cabac=1 / ref=12 / deblock=1:-3:-3 / analyse=0x3:0x113 / me=umh / subme=9 / psy_rd=1.1:0.1 / mixed_ref=1 / me_range=48 / chroma_me=1 / trellis=2 / 8x8dct=1 / cqm=0 / deadzone=21,11 / chroma_qp_offset=-3 / threads=3 / nr=0 / decimate=0 / mbaff=0 / bframes=5 / b_pyramid=1 / b_adapt=2 / b_bias=0 / direct=3 / wpredb=1 / keyint=250 / keyint_min=25 / scenecut=40 / rc=2pass / bitrate=4417 / ratetol=1.0 / qcomp=0.60 / qpmin=10 / qpmax=51 / qpstep=4 / cplxblur=20.0 / qblur=0.5 / ip_ratio=1.40 / pb_ratio=1.30 / aq=1:0.50
Язык : English

Аудио #1
Идентификатор : 2
Формат : AC-3
Формат/Информация : Audio Coding 3
Расширение режима : CM (complete main)
Идентификатор кодека : A_AC3
Продолжительность : 1 ч. 44 м.
Вид битрейта : Постоянный
Битрейт : 384 Кбит/сек
Каналы : 6 каналов
Расположение каналов : Front: L C R, Side: L R, LFE
Частота : 48,0 КГц
Битовая глубина : 16 бит
Метод сжатия : С потерями
Размер потока : 286 Мбайт (6%)
Язык : Russian

Аудио #2
Идентификатор : 3
Формат : DTS
Формат/Информация : Digital Theater Systems
Идентификатор кодека : A_DTS
Продолжительность : 1 ч. 44 м.
Вид битрейта : Постоянный
Битрейт : 1510 Кбит/сек
Каналы : 6 каналов
Расположение каналов : Front: L C R, Side: L R, LFE
Частота : 48,0 КГц
Битовая глубина : 24 бит
Метод сжатия : С потерями
Размер потока : 1,10 Гбайт (24%)
Заголовок : DTS 5.1 @ 1.5mbps
Язык : English

Текст #1
Идентификатор : 4
Формат : UTF-8
Идентификатор кодека : S_TEXT/UTF8
Идентификатор кодека/Информация : UTF-8 Plain Text
Язык : Russian

Текст #2
Идентификатор : 5
Формат : ASS
Идентификатор кодека : S_TEXT/ASS
Идентификатор кодека/Информация : Advanced Sub Station Alpha
Метод сжатия : Без потерь
Язык : English

Свернуть
Не в сети
Профиль  
 Добавлено: 2011-05-09 12:52 (спустя 8 дней)
Стаж: 7 лет 3 месяца
Сообщений: 19
Люди, в конце фильма у Дизеля из тачки звучит классный трек, кто нить знает что это такое????
Не в сети
Профиль  
 Добавлено: 2011-05-26 14:11 (спустя 17 дней)
Аватара пользователя
Стаж: 6 лет 1 месяц
Сообщений: 15
Трек называется Don Omar feat Tego Calderon-Bandaleros!По-моему это лучшее,что я слышал за свои 22 года!!!!!
Не в сети
Профиль  
Начать новую темуОтветить на тему  [ Сообщений: 3 ] 
Вы не можете начинать темы
Вы не можете отвечать на сообщения
Вы не можете редактировать свои сообщения
Вы не можете удалять свои сообщения