Правила форума

  • В этом разделе создание новых тем Запрещено.
  • Для создания новых тем пользуйтесь Корневым разделом DVD и HD фильмы.
Начать новую темуОтветить на тему  [ 1 сообщение ] 
Торрент файл
Размер: 6.93 GB • Зарегистрирован: 4 года 4 месяца • Статус: Проверено
Скачан: 69 раз • Желающих скачать: 0 • Поблагодарили: 13 раз
 Раздают: 0  |  0 KB/s  ]   Качают: 0  |  0 KB/s  ] 
 Полного источника не было 1 месяц 14 дней 
Сообщения
 Добавлено: 2012-08-02 12:40
Top-releaser
Аватара пользователя
Стаж: 6 лет 7 месяцев
Сообщений: 2078
Спасибок: 3229
Лайков: 9
Изображение

Тройной форсаж: Токийский Дрифт / The Fast and the Furious: Tokyo Drift


Год выпуска: 2006
Страна: США, Германия
Слоган: «На улицах Токио, слово «скорость» не нуждается в переводе.»
Жанр: боевик, триллер, драма, криминал
Продолжительность: 01:44:24
Перевод: Профессиональный (полное дублирование)
Режиссер: Джастин Лин
Сценарий: Крис Морган
Продюсер: Аманда Коэн, Райан Кэвэна, Грэйс Морита, Нил Х. Мориц, Линвуд Спинкс
Оператор: Стивен Ф. Уиндон
Композитор: Брайан Тайлер
В ролях: Лукас Блэк, Бау Вау, Брайан Ти, Санг Кенг, Брэндон Брендел, Дэниэл Буко, Дэвид Томас, Эмбер Стивенс, Ашика Гонья, Кристиан Салазар, Kevin Caira, Трей Санфорд
Бюджет: $85 000 000
Сборы в мире: $158 468 292
Описание: Шон Босуэлл - одинокий парень, который хочет казаться профи уличных гонок. Он бесшабашно гоняется по улицам города, пытаясь убежать от жизненных невзгод и наживая себе врагов среди местных властей. Когда Шону грозит тюрьма, его от греха подальше отсылают к отцу - профессиональному военному, который служит на военной базе в Японии.
В незнакомой стране, живущей по своим законам, Шон чувствует себя еще большим изгоем. Однако вскоре его американский приятель Твинки знакомит его с миром подпольного дрифт-рейсинга. Раньше Шон просто тупо гонялся по улицам, а здесь перед ним открылся целый мир своеобразного искусства из металла и резины, дороги которого оказались невообразимо круты на поворотах
Изображение
Раздача группы: Изображение
Качество: HDTVRip, 1080p
Формат: Matroska
Видео: AVC; 1920x816 (2.35:1); 8481 Kbps; 23,976 fps; 0,226 bit/pixel
Аудио №1: Russian; AC3; 384 Kbps; CBR; 6 ch
Аудио №2: English; AC3; 448 Kbps; CBR; 6 ch

"Знаете ли Вы, что..."
  • В дрифт-соревнованиях очки дают не за скорость или места, а за мастерство проходить повороты в контролируемых заносах. Дрифт-рейсинг представляет собой соревнование на очень извилистой широкой трассе.
Свернуть
MediaInfo
Общее
Уникальный идентификатор : 197338229599035029329872728055533104730 (0x9475F5E6FAB3CFFCA6F689E65A356E5A)
Полное имя : Z:\WWW\TR-Downloads\The.Fast.and.the.Furious.Tokyo.Drift.1080p[R.G.Daredevil].mkv
Формат : Matroska
Версия формата : Version 1
Размер файла : 6,93 Гбайт
Продолжительность : 1 ч. 44 м.
Общий поток : 9502 Кбит/сек
Дата кодирования : UTC 2007-08-11 14:56:11
Программа кодирования : mkvmerge v1.7.0 ('What Do You Take Me For') built on Apr 28 2006 17:20:19
Библиотека кодирования : libebml v0.7.7 + libmatroska v0.8.0

Видео
Идентификатор : 1
Формат : AVC
Формат/Информация : Advanced Video Codec
Профиль формата : High@L5.1
Параметр CABAC формата : Да
Параметр ReFrames формата : 8 кадров
Идентификатор кодека : V_MPEG4/ISO/AVC
Продолжительность : 1 ч. 44 м.
Битрейт : 8750 Кбит/сек
Ширина : 1920 пикселей
Высота : 816 пикселей
Соотношение сторон : 2,35:1
Частота кадров : 23,976 кадра/сек
Частота кадров в оригинале : 24,000 кадра/сек
Цветовое пространство : YUV
Субдискретизация насыщенности : 4:2:0
Битовая глубина : 8 бит
Тип развёртки : Прогрессивная
Бит/(Пиксели*Кадры) : 0.233
Размер потока : 6,19 Гбайт (89%)
Заголовок : HD TRACKER
Библиотека кодирования : x264 core 54 svn-620M
Настройки программы : cabac=1 / ref=5 / deblock=1:0:0 / analyse=0x3:0x113 / me=hex / subme=7 / brdo=1 / mixed_ref=1 / me_range=16 / chroma_me=1 / trellis=0 / 8x8dct=1 / cqm=0 / deadzone=21,11 / chroma_qp_offset=0 / threads=2 / nr=0 / decimate=0 / mbaff=0 / bframes=3 / b_pyramid=1 / b_adapt=1 / b_bias=0 / direct=1 / wpredb=1 / bime=1 / keyint=250 / keyint_min=25 / scenecut=40(pre) / rc=2pass / bitrate=8750 / ratetol=1.0 / rceq='blurCplx^(1-qComp)' / qcomp=0.60 / qpmin=10 / qpmax=51 / qpstep=4 / cplxblur=20.0 / qblur=0.5 / ip_ratio=1.40 / pb_ratio=1.30
Язык : English
Default : Да
Forced : Нет

Аудио #1
Идентификатор : 2
Формат : AC-3
Формат/Информация : Audio Coding 3
Расширение режима : CM (complete main)
Параметр Endianness формата : Big
Идентификатор кодека : A_AC3
Продолжительность : 1 ч. 44 м.
Вид битрейта : Постоянный
Битрейт : 384 Кбит/сек
Каналы : 6 каналов
Расположение каналов : Front: L C R, Side: L R, LFE
Частота : 48,0 КГц
Битовая глубина : 16 бит
Метод сжатия : С потерями
Размер потока : 287 Мбайт (4%)
Язык : Russian
Default : Да
Forced : Нет

Аудио #2
Идентификатор : 3
Формат : AC-3
Формат/Информация : Audio Coding 3
Расширение режима : CM (complete main)
Параметр Endianness формата : Big
Идентификатор кодека : A_AC3
Продолжительность : 1 ч. 44 м.
Вид битрейта : Постоянный
Битрейт : 448 Кбит/сек
Каналы : 6 каналов
Расположение каналов : Front: L C R, Side: L R, LFE
Частота : 48,0 КГц
Битовая глубина : 16 бит
Метод сжатия : С потерями
Размер потока : 335 Мбайт (5%)
Язык : English
Default : Нет
Forced : Нет
Свернуть
Скриншоты
Изображение
Изображение
Изображение
Изображение
Изображение
Свернуть
Не в сети
Профиль  
Начать новую темуОтветить на тему  [ 1 сообщение ] 
Вы не можете начинать темы
Вы не можете отвечать на сообщения
Вы не можете редактировать свои сообщения
Вы не можете удалять свои сообщения