Правила форума

  • В этом разделе создание новых тем Запрещено.
  • Для создания новых тем пользуйтесь Корневым разделом DVD и HD фильмы.
Начать новую темуОтветить на тему  [ Сообщений: 7 ] 
Торрент файл
Размер: 9.25 GB • Зарегистрирован: 5 лет 9 месяцев • Статус: Проверено
Скачан: 114 раз • Желающих скачать: 0 • Поблагодарили: 19 раз
 Раздают: 0  |  0 KB/s  ]   Качают: 0  |  0 KB/s  ] 
 Полного источника не было 13 часов 
Сообщения
 Добавлено: 2011-03-04 11:34
Модератор релиз-группы
Аватара пользователя
Стаж: 9 лет 1 месяц
Возраст: 97
Сообщений: 11659
Спасибок: 6532
Лайков: 269
Тупой и еще тупее / Dumb & Dumber

Изображение


Год выпуска: 1994
Страна: США
Слоган: «Для них каждый новый день безумнее предыдущего»
Жанр: Комедия, приключения
Продолжительность: 01:52:49
Версия фильма: Unrated / Полная версия
Перевод: Профессиональный (двухголосый закадровый)(Пётр Гланц)
Авторский(одноголосый) (Андрей Гаврилов)
Перевод Андрея Гаврилова делался под театральную версию, поэтому, на моменты расширенной версии (13 вставок общей протяжённостью 6 минут 16 секунд, но диалогов в них не много) сделаны вставки из двухголоски Петра Гланца и Инны Королёвой.
Оригинальная звуковая дорожка
Субтитры: Русские, английские

Режиссёр: Питер Фарелли
В ролях: Джим Кэрри, Джефф Дэниэлс, Лорен Холли, Кэрен Даффи, Виктория Роуэлл, Майк Старр
Описание: Два чудака, Ллойд Крисмас и Гарри Данн пытаются нагнать красивую девушку Мэри Суонсон, чтобы вручить ей потерянный ею чемоданчик-дипломат. Кретинам невдомек, что Мэри обронила его специально, в качестве выкупа по договоренности с бандитами, похитившими ее мужа. Ведь внутри лежит кругленькая сумма в гринах. На мохнатой машине уникальной марки "Овчарка" двое идиотов пересекают Америку от Род-Айленда до Колорадо, где и находят обворожительную Мэри, в которую Ллойд уже успел втюриться без памяти...
Изображение 7.399 голосов:19 311

Изображение

Качество: BDRip, 1080p
Формат: MKV
Видео кодек: H264 (AVC)
Аудио кодек: AC3 (Dolby Digital)
Видео: 1920x1080, 9815 kbps, 23.976 fps
Аудио #1: Русский AC3 5.1, 48 KHz, 640 kbps [Профессиональный (двухголосый закадровый)(Пётр Гланц)]
Аудио #2:Русский AC3 5.1, 48 KHz, 640 kbps [Авторский(одноголосый) (Андрей Гаврилов)]
Аудио #3: Английский AC3 5.1, 48 KHz, 640 kbps [Оригинальная звуковая дорожка]
Субтитры: Русские, английские
Скриншоты
Изображение

Изображение

Изображение

Изображение

Изображение
Свернуть

Mi
Unique ID : 187084850897963235816405701082375812301 (0x8CBF3B4D51F1143CBE7573531AA074CD)
Complete name : D:\Dumb and Dumber Unrated.1994.BD.Rip.1080p.h264.2xRus.Eng.mkv
Format : Matroska
File size : 9.25 GiB
Duration : 1h 52mn
Overall bit rate : 11.7 Mbps
Encoded date : UTC 2011-03-04 09:50:04
Writing application : mkvmerge v4.5.0 ('Speed of Light') сборка от Feb 1 2011 02:10:32
Writing library : libebml v1.2.0 + libmatroska v1.1.0

Video
ID : 1
Format : AVC
Format/Info : Advanced Video Codec
Format profile : High@L4.1
Format settings, CABAC : Yes
Format settings, ReFrames : 4 frames
Muxing mode : Header stripping
Codec ID : V_MPEG4/ISO/AVC
Duration : 1h 52mn
Bit rate : 9 815 Kbps
Width : 1 920 pixels
Height : 1 080 pixels
Display aspect ratio : 16:9
Frame rate : 23.976 fps
Color space : YUV
Chroma subsampling : 4:2:0
Bit depth : 8 bits
Scan type : Progressive
Bits/(Pixel*Frame) : 0.197
Stream size : 7.55 GiB (82%)
Writing library : x264 core 65 r1072M f586ba5
Encoding settings : cabac=1 / ref=4 / deblock=1:-3:-3 / analyse=0x3:0x113 / me=umh / subme=9 / psy_rd=1,0:0,0 / mixed_ref=1 / me_range=32 / chroma_me=1 / trellis=0 / 8x8dct=1 / cqm=2 / deadzone=6,4 / chroma_qp_offset=-2 / threads=6 / nr=0 / decimate=1 / mbaff=0 / bframes=3 / b_pyramid=1 / b_adapt=2 / b_bias=0 / direct=3 / wpredb=1 / keyint=240 / keyint_min=24 / scenecut=40(pre) / rc=2pass / bitrate=9815 / ratetol=1,0 / qcomp=0,60 / qpmin=10 / qpmax=51 / qpstep=4 / cplxblur=20,0 / qblur=0,5 / ip_ratio=1,40 / pb_ratio=1,30 / aq=1:1,00
Language : English

Audio #1
ID : 2
Format : AC-3
Format/Info : Audio Coding 3
Mode extension : CM (complete main)
Muxing mode : Header stripping
Codec ID : A_AC3
Duration : 1h 52mn
Bit rate mode : Constant
Bit rate : 640 Kbps
Channel(s) : 6 channels
Channel positions : Front: L C R, Side: L R, LFE
Sampling rate : 48.0 KHz
Bit depth : 16 bits
Compression mode : Lossy
Stream size : 517 MiB (5%)
Title : Двухголосый (Пётр Гланц)
Language : Russian

Audio #2
ID : 3
Format : AC-3
Format/Info : Audio Coding 3
Mode extension : CM (complete main)
Muxing mode : Header stripping
Codec ID : A_AC3
Duration : 1h 52mn
Bit rate mode : Constant
Bit rate : 640 Kbps
Channel(s) : 6 channels
Channel positions : Front: L C R, Side: L R, LFE
Sampling rate : 48.0 KHz
Bit depth : 16 bits
Compression mode : Lossy
Stream size : 517 MiB (5%)
Title : Одноголосый (Андрей Гаврилов)
Language : Russian

Audio #3
ID : 4
Format : AC-3
Format/Info : Audio Coding 3
Mode extension : CM (complete main)
Muxing mode : Header stripping
Codec ID : A_AC3
Duration : 1h 52mn
Bit rate mode : Constant
Bit rate : 640 Kbps
Channel(s) : 6 channels
Channel positions : Front: L C R, Side: L R, LFE
Sampling rate : 48.0 KHz
Bit depth : 16 bits
Compression mode : Lossy
Stream size : 517 MiB (5%)
Title : AC3 5.1 640 kbps
Language : English

Text #1
ID : 5
Format : UTF-8
Codec ID : S_TEXT/UTF8
Codec ID/Info : UTF-8 Plain Text
Language : Russian

Text #2
ID : 6
Format : UTF-8
Codec ID : S_TEXT/UTF8
Codec ID/Info : UTF-8 Plain Text
Language : English


Свернуть
Не в сети
Профиль  
 Добавлено: 2011-04-15 16:29 (спустя 1 месяц 11 дней)
Стаж: 7 лет 9 месяцев
Сообщений: 6
:hi_hi_hi: фильм классный
Не в сети
Профиль  
 Добавлено: 2011-04-16 10:14 (спустя 17 часов)
Стаж: 8 лет 1 месяц
Сообщений: 19
Спасибок: 47
Качество ГАВНО!!! И тех. характеристики правильно напиши ! 1080i ёпт
Не в сети
Профиль  
 Добавлено: 2011-04-16 12:11 (спустя 1 час 56 минут)
Модератор релиз-группы
Аватара пользователя
Стаж: 9 лет 1 месяц
Возраст: 97
Сообщений: 11659
Спасибок: 6532
Лайков: 269

revun555:

Качество ГАВНО!!!
ну ладно,тут у всех своё...
всё от источника в зависимости,да и год то 94й!!!
Но вот этот пук,просто шедевр :hi_hi_hi:

revun555:

И тех. характеристики правильно напиши ! 1080i ёпт
где ты увидел в MI словечко interlaced
там есть строчечка для слишком грамотных

Mi:

Scan type : Progressive
знатоки,они такие знатоки...
_________________
Изображение
Не в сети
Профиль  
 Добавлено: 2011-04-17 21:46 (спустя 1 день 9 часов)
Аватара пользователя
Стаж: 5 лет 8 месяцев
Возраст: 34
Сообщений: 42
Спасибок: 1
Лайков: 1
Ладно, напали на человека ботаны-задроты. Это не то, то ни се. Скажу одно - спасибо за фильму. Посмотрел снова с удовольствием.
Не в сети
Профиль  
 Добавлено: 2011-10-15 19:21 (спустя 5 месяцев 27 дней)
Аватара пользователя
Стаж: 7 лет 4 месяца
Сообщений: 55
Качество хорошее, но фильм воспроизводиться (почему-то) всегда в замедленном виде. Воспроизводил с помощью: 1)K-Lite Codec Pack и 2) Windows Media Player (11). Артурыч, подсоби чем можешь.
Не в сети
Профиль  
 Добавлено: 2011-10-15 20:31 (спустя 1 час 10 минут)
Модератор релиз-группы
Аватара пользователя
Стаж: 9 лет 1 месяц
Возраст: 97
Сообщений: 11659
Спасибок: 6532
Лайков: 269

asdsa:

Windows Media Player (11)
на свалку
МРС НС и ничего не должно тормозить, если шелесяки адекватные для HD
_________________
Изображение
Не в сети
Профиль  
Начать новую темуОтветить на тему  [ Сообщений: 7 ] 
Вы не можете начинать темы
Вы не можете отвечать на сообщения
Вы не можете редактировать свои сообщения
Вы не можете удалять свои сообщения