Правила форума

  • В этом разделе создание новых тем Запрещено.
  • Для создания новых тем пользуйтесь Корневым разделом DVD и HD фильмы.
Начать новую темуОтветить на тему  [ Сообщений: 6 ] 
Торрент файл
Размер: 9.8 GB • Зарегистрирован: 5 лет 9 месяцев • Статус: Проверено
Скачан: 449 раз • Желающих скачать: 0 • Поблагодарили: 67 раз
 Раздают: 1  |  0 KB/s  ]   Качают: 0  |  0 KB/s  ] 
Сообщения
 Добавлено: 2011-02-21 17:36
Модератор
Аватара пользователя
Стаж: 8 лет 1 месяц
Возраст: 20
Сообщений: 32130
Спасибок: 98568
Лайков: 80
Турист / The Tourist
«Ищу попутчика для опасного путешествия...»

Изображение
Год выпуска: 2010
Страна: Изображение США, Изображение Франция
Жанр: боевик, триллер, драма
Продолжительность: 01:39:22
Перевод: Профессиональный (полное дублирование) [лицензия]

Режиссер: Флориан Хенкель фон Доннерсмарк / Florian Henckel von Donnersmarck
Сценарий: Флориан Хенкель фон Доннерсмарк / Florian Henckel von Donnersmarck, Кристофер МакКуорри / Christopher McQuarrie, Джулиан Феллоуз / Julian Fellowes, Жером Салль / Jame Salle
Продюсер: Гари Барбер / Gary Barber, Роджер Бернбаум / Roger Birnbaum, Джонатан Гликман / Jonathan Glickman, Рон Халперн / Ron Halpern, Тим Хэдингтон / Tim Headington
Оператор: Джон Сил / John Seale
Композитор: Джеймс Ньютон Ховард / James Newton Howard

В ролях: Джонни Депп (Frank Tupelo), Анджелина Джоли (Elise Clifton-Ward), Пол Беттани (Inspector John Acheson), Стивен Беркофф (Reginald Shaw), Тимоти Далтон (Chief Inspector Jones), Руфус Сьюэлл (The Englishman), Игорь Жижикин (Virginsky), Кристиан Де Сика (Colonnello Lombardi), Алессио Бони (Sergente Cerato), Даниэле Печчи (Tenente Narduzzi), Джованни Гуиделли (Tenente Tommassini), Рауль Бова (Conte Filippo Gaggia)
Дублёры: Сергей Бурунов (Frank Tupelo), Ольга Зубкова (Elise Clifton-Ward), Анатолий Белый (Inspector John Acheson), Андрей Ярославцев (Reginald Shaw), Владимир Антоник (Chief Inspector Jones), Владимир Зайцев (Colonnello Lombardi), Иван Жарков (Senior Technician Mountain), Вячеслав Баранов (Interpreter Coppa)
Описание: Американский турист Фрэнк приезжает в Италию, чтобы залечить душевную рану. В Венеции он знакомится с необычной женщиной по имени Элиза. Израненное сердце, похоже, готово сдаться новой возлюбленной. Однако планы Фрэнка и Элизы грубейшим образом нарушает водоворот интриг и опасностей.

Релиз: Изображение Раздача: Изображение

Изображение
Изображение
Доп. информация
Бюджет: $100 000 000
Сборы в мире: $205 459 395
Сборы в США: $65 959 395
Сборы в России: $15 616 366
Мировая премьера: 8 декабря 2010
Изображение Релиз на DVD: 10 февраля 2011, «Columbia/Sony»
MediaInfo
General
Complete name                    : DEOSS77 | The.Tourist.2010.D.BDRip.1080p.NNTT.k236
Format                           : Matroska
File size                        : 9.80 GiB
Duration                         : 1h 43mn
Overall bit rate                 : 13.6 Mbps
Encoded date                     : UTC 2011-02-21 11:53:27
Writing application              : mkvmerge v3.4.0 ('Rapunzel') сборка от May 15 2010 09:38:20
Writing library                  : libebml v0.8.0 + libmatroska v0.9.0

Video
ID                               : 1
Format                           : AVC
Format/Info                      : Advanced Video Codec
Format profile                   : High@L4.1
Format settings, CABAC           : Yes
Format settings, ReFrames        : 5 frames
Muxing mode                      : Container profile=Unknown@4.1
Codec ID                         : V_MPEG4/ISO/AVC
Duration                         : 1h 43mn
Bit rate                         : 10.5 Mbps
Width                            : 1 920 pixels
Height                           : 800 pixels
Display aspect ratio             : 2.40:1
Frame rate                       : 23.976 fps
Color space                      : YUV
Chroma subsampling               : 4:2:0
Bit depth                        : 8 bits
Scan type                        : Progressive
Bits/(Pixel*Frame)               : 0.286
Stream size                      : 7.43 GiB (76%)
Writing library                  : x264 core 107 r1766 f9f0035
Encoding settings                : cabac=1 / ref=5 / deblock=1:-3:-3 / analyse=0x3:0x113 / me=umh / subme=10 / psy=1 / psy_rd=1.10:0.15 / mixed_ref=1 / me_range=48 / chroma_me=1 / trellis=2 / 8x8dct=1 / cqm=2 / deadzone=21,11 / fast_pskip=0 / chroma_qp_offset=-2 / threads=12 / sliced_threads=0 / nr=0 / decimate=1 / interlaced=0 / constrained_intra=0 / bframes=6 / b_pyramid=2 / b_adapt=2 / b_bias=0 / direct=3 / weightb=1 / open_gop=0 / weightp=2 / keyint=250 / keyint_min=23 / scenecut=40 / intra_refresh=0 / rc_lookahead=40 / rc=2pass / mbtree=0 / bitrate=10541 / ratetol=1.0 / qcomp=0.70 / qpmin=10 / qpmax=51 / qpstep=4 / cplxblur=20.0 / qblur=0.5 / vbv_maxrate=40000 / vbv_bufsize=30000 / ip_ratio=1.40 / pb_ratio=1.30 / aq=1:0.90 / nal_hrd=none

Audio #1
ID                               : 2
Format                           : DTS
Format/Info                      : Digital Theater Systems
Codec ID                         : A_DTS
Duration                         : 1h 43mn
Bit rate mode                    : Constant
Bit rate                         : 1 510 Kbps
Channel(s)                       : 6 channels
Channel positions                : Front: L C R, Side: L R, LFE
Sampling rate                    : 48.0 KHz
Bit depth                        : 24 bits
Stream size                      : 1.09 GiB (11%)
Language                         : Russian

Audio #2
ID                               : 3
Format                           : DTS
Format/Info                      : Digital Theater Systems
Codec ID                         : A_DTS
Duration                         : 1h 43mn
Bit rate mode                    : Constant
Bit rate                         : 1 510 Kbps
Channel(s)                       : 6 channels
Channel positions                : Front: L C R, Side: L R, LFE
Sampling rate                    : 48.0 KHz
Bit depth                        : 24 bits
Stream size                      : 1.09 GiB (11%)
Language                         : English

Text #1
ID                               : 4
Format                           : UTF-8
Codec ID                         : S_TEXT/UTF8
Codec ID/Info                    : UTF-8 Plain Text
Language                         : Russian

Text #2
ID                               : 5
Format                           : UTF-8
Codec ID                         : S_TEXT/UTF8
Codec ID/Info                    : UTF-8 Plain Text
Language                         : Russian

Text #3
ID                               : 6
Format                           : UTF-8
Codec ID                         : S_TEXT/UTF8
Codec ID/Info                    : UTF-8 Plain Text
Language                         : English

Text #4
ID                               : 7
Format                           : UTF-8
Codec ID                         : S_TEXT/UTF8
Codec ID/Info                    : UTF-8 Plain Text
Language                         : English
Свернуть
Свернуть

MPAA: Изображение
Качество: BDRip 1080p R5
Формат: MKV
Видео: 10.5 mb/s, 1920x800, 23.976 fps
Аудио: Russian / English: DTS, 1510 kb/s (6 ch)
Субтитры: Russian [Full], Russian [Forced], English [Full], English [Forced]

Знаете ли Вы, что...
  • Шарлиз Терон первоначально должна была играть роль Элизы.
  • Изначально Фрэнка должен был играть Том Круз, однако его заменили на Сэма Уортингтона. В итоге же из-за «творческих разногласий» Сэм покинул проект, а роль дали Джонни Деппу.
  • Съёмки на катерах по венецианским каналам проходили на протяжении семи ночей. Чтобы снять эту часть фильма, Джоли даже научилась управлять несколькими видами катеров.
Свернуть
Скриншоты
Изображение
Изображение
Изображение
Свернуть
Не в сети
Профиль  
 Добавлено: 2011-02-22 17:04 (спустя 23 часа)
Аватара пользователя
Стаж: 7 лет 5 месяцев
Сообщений: 35
Спасибо за раздачу, но мне интересно почему обычно размер видео делают 1920x800 а не 1920x1080. Ведь фильм в качестве 1080p хочется смотреть в полном экране, а не в обрезанном с темными полосками с верху и с низу.
Не в сети
Профиль  
 Добавлено: 2011-02-22 22:37 (спустя 5 часов)
Стаж: 8 лет 9 месяцев
Сообщений: 556
Спасибок: 624
Лайков: 1

rjhgu.ljh:

Спасибо за раздачу, но мне интересно почему обычно размер видео делают 1920x800 а не 1920x1080. Ведь фильм в качестве 1080p хочется смотреть в полном экране, а не в обрезанном с темными полосками с верху и с низу.
Присоединяюсь! пеня просто выводит из себя, когда я смотрю фильм, в котором как будто спецально откромсали сверху и снизу((( фу((
Не в сети
Профиль  
 Добавлено: 2011-02-23 01:17 (спустя 2 часа 39 минут)
Аватара пользователя
Стаж: 8 лет 9 месяцев
Сообщений: 49
doom2good
rjhgu.ljh
Оставшиеся 280 pix занимали чёрные полосы, вот их и убрали! Так что всё норм!
Не в сети
Профиль  
 Добавлено: 2011-02-26 22:10 (спустя 3 дня)
Аватара пользователя
Стаж: 8 лет 7 месяцев
Сообщений: 45
Спасибок: 1397
Все широкоэкранки изначально снимаются в формате 2:1. Зайди в любой кинотеатр.
Не в сети
Профиль  
 Добавлено: 2016-04-23 19:52 (спустя 5 лет 1 месяц)
Стаж: 7 лет 11 месяцев
Сообщений: 20
раздайте плиз
Не в сети
Профиль  
Начать новую темуОтветить на тему  [ Сообщений: 6 ] 
Вы не можете начинать темы
Вы не можете отвечать на сообщения
Вы не можете редактировать свои сообщения
Вы не можете удалять свои сообщения