Правила форума

  • В этом разделе создание новых тем Запрещено.
  • Для создания новых тем пользуйтесь Корневым разделом DVD и HD фильмы.
Начать новую темуОтветить на тему  [ Сообщений: 5 ] 
Торрент файл
Размер: 4.65 GB • Зарегистрирован: 5 лет 9 месяцев • Статус: Проверено
Скачан: 257 раз • Желающих скачать: 0 • Поблагодарили: 33 раза
 Раздают: 0  |  0 KB/s  ]   Качают: 0  |  0 KB/s  ] 
 Полного источника не было 1 месяц 5 дней 
Сообщения
 Добавлено: 2011-02-19 12:19
Руководитель релиз-группы
Аватара пользователя
Стаж: 8 лет 6 месяцев
Возраст: 25
Сообщений: 7578
Спасибок: 51915
Лайков: 14
Турист / The Tourist

«Ищу попутчика для опасного путешествия...»

 
Изображение
Год выпуска: 2010
Страна: США / Франция

Жанр: Боевик, триллер, драма
Продолжительность: 01:43:28
Перевод: Профессиональный (полное дублирование) Лицензия

Режиссер: Флориан Хенкель фон Доннерсмарк
Сценарий: Флориан Хенкель фон Доннерсмарк, Кристофер МакКуорри, Джулиан Феллоуз
Продюсер: Гари Барбер, Роджер Бернбаум, Джонатан Гликман
Оператор: Джон Сил
Композитор: Джеймс Ньютон Ховард

В ролях:Джонни Депп, Анджелина Джоли, Пол Беттани, Тимоти Далтон, Стивен Беркофф, Руфус Сьюэлл, Кристиан Де Сика, Алессио Бони, Даниэле Печчи, Джованни Гуиделли
Описание: Американский турист Фрэнк приезжает в Италию, чтобы залечить душевную рану. В Венеции он знакомится с необычной женщиной по имени Элиза. Израненное сердце, похоже, готово сдаться новой возлюбленной. Однако планы Фрэнка и Элизы грубейшим образом нарушает водоворот интриг и опасностей.
Рейтинг MPAA: Рейтинг PG-13 (Дети до 13 лет допускаются на фильм только с родителями)
Мировая премьера: 8 декабря 2010
Премьера в России: 5 января 2011, «WDSSPR»
Бюджет: $100 000 000
Кассовые сборы: + $162 700 000 = $229 700 102
Изображение 6,5/10 {19, 996 votes} Изображение 6,0/10 {19, 631 votes}
Mediainfo
General
Unique ID : 187461746343439522658600596537458342679 (0x8D07D1AEA30299A9AE505A0504D0BB17)
Complete name : Tourist.2010.BDRip.720p.mkv
Format : Matroska
File size : 4.65 GiB
Duration : 1h 43mn
Overall bit rate : 6 433 Kbps
Encoded date : UTC 2011-02-19 08:23:49
Writing application : mkvmerge v4.5.0 ('Speed of Light') built on Feb 15 2011 12:50:20
Writing library : libebml v1.2.0 + libmatroska v1.1.0

Video
ID : 1
Format : AVC
Format/Info : Advanced Video Codec
Format profile : High@L4.1
Format settings, CABAC : Yes
Format settings, ReFrames : 8 frames
Codec ID : V_MPEG4/ISO/AVC
Duration : 1h 43mn
Bit rate : 4 541 Kbps
Width : 1 280 pixels
Height : 534 pixels
Display aspect ratio : 2.35:1
Frame rate : 23.976 fps
Color space : YUV
Chroma subsampling : 4:2:0
Bit depth : 8 bits
Scan type : Progressive
Bits/(Pixel*Frame) : 0.277
Stream size : 3.19 GiB (69%)
Writing library : x264 core 114 r1900 60ef1f8
Encoding settings : cabac=1 / ref=8 / deblock=1:-2:-2 / analyse=0x3:0x133 / me=umh / subme=9 / psy=1 / psy_rd=1.20:0.20 / mixed_ref=1 / me_range=16 / chroma_me=1 / trellis=2 / 8x8dct=1 / cqm=0 / deadzone=21,11 / fast_pskip=1 / chroma_qp_offset=-3 / threads=12 / sliced_threads=0 / nr=0 / decimate=0 / interlaced=0 / constrained_intra=0 / bframes=3 / b_pyramid=2 / b_adapt=2 / b_bias=0 / direct=3 / weightb=1 / open_gop=0 / weightp=2 / keyint=250 / keyint_min=2 / scenecut=40 / intra_refresh=0 / rc_lookahead=60 / rc=2pass / mbtree=1 / bitrate=4541 / ratetol=1.0 / qcomp=0.60 / qpmin=10 / qpmax=51 / qpstep=4 / cplxblur=20.0 / qblur=0.5 / vbv_maxrate=38000 / vbv_bufsize=38000 / nal_hrd=none / ip_ratio=1.40 / aq=1:1.00
Language : English

Audio #1
ID : 2
Format : AC-3
Format/Info : Audio Coding 3
Mode extension : CM (complete main)
Codec ID : A_AC3
Duration : 1h 43mn
Bit rate mode : Constant
Bit rate : 384 Kbps
Channel(s) : 6 channels
Channel positions : Front: L C R, Side: L R, LFE
Sampling rate : 48.0 KHz
Bit depth : 16 bits
Compression mode : Lossy
Stream size : 284 MiB (6%)
Title : Dublyazh AC3 5.1 384 kbps
Language : Russian

Audio #2
ID : 3
Format : DTS
Format/Info : Digital Theater Systems
Codec ID : A_DTS
Duration : 1h 43mn
Bit rate mode : Constant
Bit rate : 1 510 Kbps
Channel(s) : 6 channels
Channel positions : Front: L C R, Side: L R, LFE
Sampling rate : 48.0 KHz
Bit depth : 24 bits
Compression mode : Lossy
Stream size : 1.09 GiB (23%)
Title : DTS 5.1 1536 kbps
Language : English

Text
ID : 4
Format : UTF-8
Codec ID : S_TEXT/UTF8
Codec ID/Info : UTF-8 Plain Text
Title : Tol'ko nadpisi
Language : Russian
Свернуть

Качество: BDRip 720p R5 / HQRip
Формат: MKV
Видео кодек: H264
Аудио кодек: DTS/AC3
Видео: 1280x534, 4541 kbps, 23.976 fps
Аудио#1: Russian: AC3 5.1, 48 KHz, 384 kbps |Дубляж|
Аудио#3: English: DTS 5.1, 48 KHz, 1536 kbps
Субтитры: Русские (на французскую речь, отключаемые)

Скриншоты:

Изображение

Изображение

Изображение
Свернуть





release by Izer
Не в сети
Профиль  
 Добавлено: 2011-02-19 13:22 (спустя 1 час 2 минуты)
Аватара пользователя
Стаж: 8 лет 7 месяцев
Сообщений: 230
Спасибок: 168
Лайков: 1
Когда 1080 ожидается?
Не в сети
Профиль  
 Добавлено: 2011-02-19 15:36 (спустя 2 часа 14 минут)
Модератор
Аватара пользователя
Стаж: 8 лет 1 месяц
Возраст: 20
Сообщений: 32130
Спасибок: 98576
Лайков: 80

max_zen:

Когда 1080 ожидается?
скоро :)
Не в сети
Профиль  
 Добавлено: 2011-02-19 21:42 (спустя 6 часов)
Аватара пользователя
Стаж: 7 лет 4 месяца
Возраст: 28
Сообщений: 340
Спасибок: 4351
Лайков: 2
Классная киношка!!!
Не в сети
Профиль  
 Добавлено: 2011-02-20 10:48 (спустя 13 часов)
Стаж: 7 лет 2 месяца
Возраст: 30
Сообщений: 35
У меня обе дорожки на английском языке...
Не в сети
Профиль  
Начать новую темуОтветить на тему  [ Сообщений: 5 ] 
Вы не можете начинать темы
Вы не можете отвечать на сообщения
Вы не можете редактировать свои сообщения
Вы не можете удалять свои сообщения