Правила форума

  • В этом разделе создание новых тем Запрещено.
  • Для создания новых тем пользуйтесь Корневым разделом DVD и HD фильмы.
Начать новую темуОтветить на тему  [ Сообщений: 3 ] 
Торрент файл
Размер: 16.9 GB • Зарегистрирован: 5 лет 1 месяц • Статус: Проверено
Скачан: 35 раз • Желающих скачать: 0 • Поблагодарили: 13 раз
 Раздают: 0  |  0 KB/s  ]   Качают: 0  |  0 KB/s  ] 
 Полного источника не было 3 года 2 месяца 
Сообщения
 Добавлено: 2011-10-24 16:35
Модератор релиз-группы
Аватара пользователя
Стаж: 9 лет 1 месяц
Возраст: 97
Сообщений: 11660
Спасибок: 6534
Лайков: 269
Изображение


У холмов есть глаза
У холмов есть глаза / The Hills Have Eyes Unrated

Изображение


Год выпуска: 2006
Страна: США
Жанр: ужасы, триллер
Продолжительность: 1:48:26
Перевод: профессиональный (полное дублирование)
Многоголосый закадровый
Оригинальная звуковая дорожка

Режиссер: Александр Ажа /Alexandre Aja

В ролях: Аарон Стэнфорд , Кэтлин Куинлан , Вайнесса Шоу , Эмили де Рэвин , Дэн Берд , Роберт Джой

Описание: Отправляясь в небольшое путешествие, семья Картеров и не подозревала, каким ужасом оно для них обернется. Решив уехать подальше от цивилизации, они забредают в необитаемую пустыню, которая раньше служила полигоном для ядерных испытаний. Вскоре Картеры обнаруживают, что на этой вроде бы пустынной территории обитает кровожадная семейка мутантов... а они сами - добыча.
Качество: BDRip
Контейнер: MKV
Видео кодек: h.264
Аудио кодек: AC3/DTS
Видео: 1920x814, 23.976 fps, x264, 9495 Kbps

Аудио : АС3 5.1, 48.0 KHz, 448 Kbps (дубляж)
Аудио : AC3 5.1, 48.0 KHz, 448 Kbps (закадровый многоголосый)
Аудио : DTS 5.1, 48.0 KHz, 1536 Kbps

скриншоты
Изображение

Изображение

Изображение

Изображение
Свернуть
Mi
Format : Matroska
Format version : Version 1
File size : 9.42 GiB
Duration : 1h 48mn
Overall bit rate : 12.4 Mbps
Encoded date : UTC 2008-04-13 21:14:47
Writing application : mkvmerge v2.1.0 ('Another Place To Fall') built on Aug 19 2007 13:40:07
Writing library : libebml v0.7.7 + libmatroska v0.8.1

Video
ID : 1
Format : AVC
Format/Info : Advanced Video Codec
Format profile : High@L4.1
Format settings, CABAC : Yes
Format settings, ReFrames : 3 frames
Codec ID : V_MPEG4/ISO/AVC
Duration : 1h 48mn
Bit rate mode : Variable
Bit rate : 9 778 Kbps
Maximum bit rate : 38.0 Mbps
Width : 1 920 pixels
Height : 814 pixels
Display aspect ratio : 2.35:1
Frame rate : 23.976 fps
Color space : YUV
Chroma subsampling : 4:2:0
Bit depth : 8 bits
Scan type : Progressive
Bits/(Pixel*Frame) : 0.261
Stream size : 7.41 GiB (79%)
Language : Russian

Audio #1
ID : 2
Format : AC-3
Format/Info : Audio Coding 3
Mode extension : CM (complete main)
Codec ID : A_AC3
Duration : 1h 48mn
Bit rate mode : Constant
Bit rate : 448 Kbps
Channel(s) : 6 channels
Channel positions : Front: L C R, Side: L R, LFE
Sampling rate : 48.0 KHz
Bit depth : 16 bits
Compression mode : Lossy
Stream size : 347 MiB (4%)
Language : Russian

Audio #2
ID : 3
Format : AC-3
Format/Info : Audio Coding 3
Mode extension : CM (complete main)
Codec ID : A_AC3
Duration : 1h 48mn
Bit rate mode : Constant
Bit rate : 448 Kbps
Channel(s) : 6 channels
Channel positions : Front: L C R, Side: L R, LFE
Sampling rate : 48.0 KHz
Bit depth : 16 bits
Compression mode : Lossy
Stream size : 347 MiB (4%)
Language : Russian

Audio #3
ID : 4
Format : DTS
Format/Info : Digital Theater Systems
Codec ID : A_DTS
Duration : 1h 48mn
Bit rate mode : Constant
Bit rate : 1 510 Kbps
Channel(s) : 6 channels
Channel positions : Front: L C R, Side: L R, LFE
Sampling rate : 48.0 KHz
Bit depth : 24 bits
Compression mode : Lossy
Stream size : 1.14 GiB (12%)
Language : English

Свернуть
Свернуть


У холмов есть глаза 2
У холмов есть глаза 2 / The Hills Have Eyes II

Изображение


Год выпуска: 2007
Страна: США
Жанр: ужасы, триллер
Продолжительность: 01:29:57
Перевод: Профессиональный (полное дублирование)
Субтитры: Английские
Режиссер: Мартин Уайс

В ролях: Майкл МакМиллиан, Джессика Строуп, Даниэлла Алонсо, Ли Томпсон Янг, Бен Краули, Эрик Эделстайн, Решад Стрик, Майкл Бэйли Смит, Дэвид Рейнолдс, Дерек Мирс, Джефф Кобер, Джей Аковоне, Арчи Као

Описание: Во время учений солдаты Национальной гвардии США делают привал на пограничной заставе в Нью-Мексико и, к своему удивлению, обнаруживают, что там никого нет. Получив сигнал тревоги, исходящий с отдаленной горной возвышенности, группа военных решает отправиться в этот район, чтобы помочь терпящим бедствие. Спасатели не знают, что это местечко когда-то посетила печально известная семья Картеров и что их поджидают кровожадные мутанты-каннибалы…
Качество: BDRip
Формат: MKV
Видео кодек: H.264
Аудио кодек: DTS
Видео: 1920x816 at 23.976 fps, x264, 2PASS HIGH@L4.1, ~11.130 Kbps avg
Аудио: Russian: 48 kHz, DTS, 3/2 (L,C,R,l,r) + LFE ch, ~768.00 kbps avg
Субтитры: Английские
скриншоты
Изображение

Изображение

Изображение

Изображение
Свернуть
Mi
Format : Matroska
Format version : Version 1
File size : 7.48 GiB
Duration : 1h 29mn
Overall bit rate : 11.9 Mbps
Movie name : HDClub
Encoded date : UTC 2008-10-14 19:38:29
Writing application : mkvmerge v2.0.2 ('You're My Flame') built on Feb 21 2007 23:40:55
Writing library : libebml v0.7.7 + libmatroska v0.8.1

Video
ID : 1
Format : AVC
Format/Info : Advanced Video Codec
Format profile : High@L4.1
Format settings, CABAC : Yes
Format settings, ReFrames : 3 frames
Codec ID : V_MPEG4/ISO/AVC
Duration : 1h 29mn
Bit rate : 11.1 Mbps
Width : 1 920 pixels
Height : 816 pixels
Display aspect ratio : 2.35:1
Frame rate : 23.976 fps
Color space : YUV
Chroma subsampling : 4:2:0
Bit depth : 8 bits
Scan type : Progressive
Bits/(Pixel*Frame) : 0.296
Stream size : 6.86 GiB (92%)
Title : HDClub
Writing library : x264 core 60 r901M 58d7d06
Encoding settings : cabac=1 / ref=3 / deblock=1:-3:-3 / analyse=0x1:0x131 / me=esa / subme=7 / rdcmp=psy / brdo=1 / mixed_ref=1 / me_range=32 / chroma_me=1 / trellis=2 / 8x8dct=0 / cqm=2 / deadzone=21,11 / chroma_qp_offset=0 / threads=6 / nr=0 / decimate=0 / mbaff=0 / bframes=3 / b_pyramid=1 / b_adapt=1 / b_bias=0 / direct=3 / wpredb=1 / bime=1 / keyint=250 / keyint_min=25 / scenecut=40(pre) / rc=2pass / bitrate=11130 / ratetol=1.0 / rceq='blurCplx^(1-qComp)' / qcomp=1.00 / qpmin=10 / qpmax=51 / qpstep=4 / cplxblur=20.0 / qblur=0.5 / ip_ratio=1.40 / pb_ratio=1.30 / aq=2:1.00
Language : English

Audio
ID : 2
Format : DTS
Format/Info : Digital Theater Systems
Codec ID : A_DTS
Duration : 1h 29mn
Bit rate mode : Constant
Bit rate : 755 Kbps
Channel(s) : 6 channels
Channel positions : Front: L C R, Side: L R, LFE
Sampling rate : 48.0 KHz
Bit depth : 24 bits
Compression mode : Lossy
Stream size : 486 MiB (6%)
Title : Дубляж
Language : Russian

Text
ID : 3
Format : UTF-8
Codec ID : S_TEXT/UTF8
Codec ID/Info : UTF-8 Plain Text
Language : English

Свернуть
Свернуть
Изображение

_________________
Изображение
Не в сети
Профиль  
 Добавлено: 2011-11-06 16:54 (спустя 13 дней)
Стаж: 5 лет 1 месяц
Сообщений: 17
за релиз спасибо! давно хотел в качестве посмотреть! эх скорость!! : потихоньку скачаю все равно
Не в сети
Профиль  
 Добавлено: 2012-03-29 07:36 (спустя 4 месяца 22 дня)
Стаж: 7 лет 9 месяцев
Сообщений: 24
Встаньте на раздачу пжлст!
Не в сети
Профиль  
Начать новую темуОтветить на тему  [ Сообщений: 3 ] 
Вы не можете начинать темы
Вы не можете отвечать на сообщения
Вы не можете редактировать свои сообщения
Вы не можете удалять свои сообщения