Правила форума

  • В этом разделе создание новых тем Запрещено.
  • Для создания новых тем пользуйтесь Корневым разделом DVD и HD фильмы.
Начать новую темуОтветить на тему  [ Сообщений: 6 ] 
Торрент файл
Размер: 5.66 GB • Зарегистрирован: 3 года 1 месяц • Статус: T Временный релиз
Скачан: 9 раз • Желающих скачать: 0 • Поблагодарили: 6 раз
 Раздают: 0  |  0 KB/s  ]   Качают: 0  |  0 KB/s  ] 
 Полного источника не было 1 год 7 месяцев 
Сообщения
 Добавлено: 2013-11-03 10:45
Аватара пользователя
Стаж: 3 года 6 месяцев
Сообщений: 175
Спасибок: 4258
Лайков: 29
У всех есть план / Todos tenemos un plan

Изображение


Год выпуска: 2012
Страна: Аргентина, Испания, Германия
Жанр: драма, криминал
Продолжительность: 01:58:05
Перевод: Любительский (одноголосый)[den 904]
Субтитры: Английские

Режиссёр: Ана Питербарг
В ролях: Вигго Мортенсен, Соледад Вильямиль, Дэниэл Фанего, Хавьер Годино, София Гала, Оскар Алегре, Хоакин Дэниэл, Каролина Роман
Описание: Агустин узнает о смерти своего брата-близнеца Педро и решает присвоить себе его жизнь. Но он не догадывается, какое криминальное прошлое было у его брата…
Доп.информация: Сохранены оригинальные чаптеры как на Blu-Ray
Релиз от: CINEMANIA


Качество: BDRip 720p
Формат: MKV
Видео кодек: AVC
Аудио кодек: AC3, DTS
Видео: 1280x694, 4769 kb/s
Аудио #1: Russian: AC3, 448 (6 ch)
Аудио #2: Spanish: DTS, 1510 kb/s (6 ch)

Изображение

Media Info
General
Everybody.Has.A.Plan.2012.BDRip.720p.CINEMANIA.mkv
Format : Matroska
Format version : Version 4 / Version 2
File size : 5.66 GiB
Duration : 1h 58mn
Overall bit rate : 6 862 Kbps
Movie name : CINEMANIA.CC
Encoded date : UTC 2013-11-02 13:27:30
Writing application : mkvmerge v6.5.0 ('Isn't she lovely') built on Oct 20 2013 12:50:05
Writing library : libebml v1.3.0 + libmatroska v1.4.1

Video
ID : 1
Format : AVC
Format/Info : Advanced Video Codec
Format profile : High@L4.1
Format settings, CABAC : Yes
Format settings, ReFrames : 5 frames
Codec ID : V_MPEG4/ISO/AVC
Duration : 1h 58mn
Bit rate : 4 769 Kbps
Width : 1 280 pixels
Height : 694 pixels
Display aspect ratio : 1.85:1
Frame rate mode : Constant
Frame rate : 23.976 fps
Color space : YUV
Chroma subsampling : 4:2:0
Bit depth : 8 bits
Scan type : Progressive
Bits/(Pixel*Frame) : 0.224
Stream size : 3.93 GiB (69%)
Title : CINEMANIA.CC
Language : English
Default : Yes
Forced : No

Audio #1
ID : 2
Format : AC-3
Format/Info : Audio Coding 3
Mode extension : CM (complete main)
Format settings, Endianness : Big
Codec ID : A_AC3
Duration : 1h 58mn
Bit rate mode : Constant
Bit rate : 448 Kbps
Channel(s) : 6 channels
Channel positions : Front: L C R, Side: L R, LFE
Sampling rate : 48.0 KHz
Bit depth : 16 bits
Compression mode : Lossy
Stream size : 378 MiB (7%)
Title : den904
Language : Russian
Default : Yes
Forced : Yes

Audio #2
ID : 3
Format : DTS
Format/Info : Digital Theater Systems
Mode : 16
Format settings, Endianness : Big
Codec ID : A_DTS
Duration : 1h 58mn
Bit rate mode : Constant
Bit rate : 1 509 Kbps
Channel(s) : 6 channels
Channel positions : Front: L C R, Side: L R, LFE
Sampling rate : 48.0 KHz
Bit depth : 24 bits
Compression mode : Lossy
Stream size : 1.24 GiB (22%)
Language : Spanish
Default : No
Forced : No

Text
ID : 4
Format : UTF-8
Codec ID : S_TEXT/UTF8
Codec ID/Info : UTF-8 Plain Text
Language : English
Default : No
Forced : No

Menu
00:00:00.000 : en:00:00:00.000
00:19:00.639 : en:00:19:00.639
00:35:05.103 : en:00:35:05.103
00:49:52.489 : en:00:49:52.489
01:04:02.338 : en:01:04:02.338
01:19:04.239 : en:01:19:04.239
01:34:59.694 : en:01:34:59.694
01:54:06.131 : en:01:54:06.131
Свернуть


Скриншоты
Изображение
Изображение
Изображение
Изображение
Свернуть


Последний раз редактировалось bel66 2013-11-07 19:34, всего редактировалось 3 раз(а).
Не в сети
Профиль  
 Добавлено: 2013-11-03 12:21 (спустя 1 час 36 минут)
Модератор
Аватара пользователя
Стаж: 8 лет 11 месяцев
Сообщений: 516
Спасибок: 26888
Лайков: 1
Для HD и HQRip-ов необходимы скриншоты в формате PNG, для остальных форматов PNG так же рекомендуется.
Не в сети
Профиль  
 Добавлено: 2013-11-03 14:22 (спустя 2 часа 1 минута)
Аватара пользователя
Стаж: 3 года 6 месяцев
Сообщений: 175
Спасибок: 4258
Лайков: 29
скриншоты исправил.
Не в сети
Профиль  
 Добавлено: 2013-11-05 23:39 (спустя 2 дня 9 часов)
Аватара пользователя
Стаж: 3 года 10 месяцев
Возраст: 39
Сообщений: 71
Спасибок: 960
Лайков: 5
Спасибо за труд !!! :)
Не в сети
Профиль  
 Добавлено: 2013-11-07 21:36 (спустя 1 день 21 час)
Аватара пользователя
Стаж: 4 года 10 месяцев
Возраст: 29
Сообщений: 86
Лайков: 1
как фильм???
Не в сети
Профиль  
 Добавлено: 2013-11-07 22:53 (спустя 1 час 17 минут)
Аватара пользователя
Стаж: 8 лет
Сообщений: 1391
Спасибок: 39
Лайков: 64
о...Виг
Не в сети
Профиль  
Начать новую темуОтветить на тему  [ Сообщений: 6 ] 
Вы не можете начинать темы
Вы не можете отвечать на сообщения
Вы не можете редактировать свои сообщения
Вы не можете удалять свои сообщения