Правила форума

  • В этом разделе создание новых тем Запрещено.
  • Для создания новых тем пользуйтесь Корневым разделом DVD и HD фильмы.
Начать новую темуОтветить на тему  [ Сообщений: 3 ] 
Торрент файл
Размер: 8.28 GB • Зарегистрирован: 1 год 2 месяца • Статус: Проверено
Скачан: 129 раз • Желающих скачать: 0 • Поблагодарили: 20 раз
 Раздают: 0  |  0 KB/s  ]   Качают: 0  |  0 KB/s  ] 
 Полного источника не было 19 часов 
Сообщения
 Добавлено: 2011-05-26 17:08
Модератор
Аватара пользователя
Стаж: 7 лет 9 месяцев
Сообщений: 4521
Спасибок: 112850
Лайков: 583
Убежище
Shelter

Изображение

Год выпуска: 2010
Страна: США (Macari/Edelstein)
Слоган: «Прятки начинаются. Он уже ищет тебя.»
Жанр: ужасы, триллер, детектив
Продолжительность: 01:52:31
Перевод: Профессиональный (дубляж) [лицензия]

Режиссёр: Манс Марлинд, Бьёрн Стейн

В ролях: Джулианна Мур, Джонатан Риз Мейерс, Джефри ДеМанн, Фрэнсис Конрой, Натан Кордри, Бруклин Пру, Брайан Энтони Уилсон, Джойс Фьюрринг, Стивен Ришард, Чарльз Текман
Описание: Мать-одиночка и практикующий психиатр Кара Хардинг ведет тему разоблачения идеи о синдроме раздвоения личности. Но однажды она сталкивается с пациентом, чья болезнь не поддается рациональному объяснению: под личиной обычного человека живет демон, который крадет души мертвых…
Раздача: Изображение

Рейтинг MPAA: Рейтинг R (Подростки до 17 лет допускаются на фильм только в сопровождении одного из родителей)
Изображение 6.6/10 {2,965 votes}
Изображение 5.9/10 (5,321 votes)

Качество: BDRip 1080p R5
Формат: MKV
Видео: MPEG-4 AVC, 8575 Кбит/с, 1920х816, 23.976 Кадр/с
Аудио 1: Русский (AC3, 6 ch, 448 Кбит/с)
Аудио 2: Английский (DTS, 6 ch, 1510 Кбит/с)
Изображение
NFO
General
Unique ID : 171314380779216388523296546954308633795 (0x80E1F317FB5ED7C2A00F604F729644C3)
Complete name : D:\Downloads\Torrents\Upload\Ubezhiwe.2010.x264.BDRip.1080p.mkv
Format : Matroska
File size : 8.28 GiB
Duration : 1h 52mn
Overall bit rate : 10.5 Mbps
Encoded date : UTC 2011-05-26 11:28:01
Writing application : mkvmerge v4.8.0 ('I Got The...') ������ �� May 24 2011 03:12:58
Writing library : libebml v1.2.0 + libmatroska v1.1.0

Video
ID : 1
Format : AVC
Format/Info : Advanced Video Codec
Format profile : High@L4.0
Format settings, CABAC : Yes
Format settings, ReFrames : 5 frames
Codec ID : V_MPEG4/ISO/AVC
Duration : 1h 52mn
Bit rate : 8 575 Kbps
Width : 1 920 pixels
Height : 816 pixels
Display aspect ratio : 2.35:1
Frame rate : 23.976 fps
Color space : YUV
Chroma subsampling : 4:2:0
Bit depth : 8 bits
Scan type : Progressive
Bits/(Pixel*Frame) : 0.228
Stream size : 6.57 GiB (79%)
Writing library : x264 core 104 r1683 62997d6
Encoding settings : cabac=1 / ref=5 / deblock=1:0:0 / analyse=0x3:0x113 / me=umh / subme=7 / psy=1 / psy_rd=1.00:0.00 / mixed_ref=1 / me_range=16 / chroma_me=1 / trellis=1 / 8x8dct=1 / cqm=0 / deadzone=21,11 / fast_pskip=0 / chroma_qp_offset=-2 / threads=12 / sliced_threads=0 / nr=0 / decimate=1 / interlaced=0 / constrained_intra=0 / bframes=3 / b_pyramid=2 / b_adapt=1 / b_bias=0 / direct=1 / weightb=1 / open_gop=0 / weightp=2 / keyint=250 / keyint_min=23 / scenecut=40 / intra_refresh=0 / rc_lookahead=40 / rc=2pass / mbtree=1 / bitrate=8575 / ratetol=1.0 / qcomp=0.60 / qpmin=10 / qpmax=51 / qpstep=4 / cplxblur=20.0 / qblur=0.5 / ip_ratio=1.40 / aq=1:1.00
Language : English

Audio #1
ID : 2
Format : AC-3
Format/Info : Audio Coding 3
Mode extension : CM (complete main)
Codec ID : A_AC3
Duration : 1h 52mn
Bit rate mode : Constant
Bit rate : 448 Kbps
Channel(s) : 6 channels
Channel positions : Front: L C R, Side: L R, LFE
Sampling rate : 48.0 KHz
Bit depth : 16 bits
Compression mode : Lossy
Stream size : 361 MiB (4%)
Language : Russian

Audio #2
ID : 3
Format : DTS
Format/Info : Digital Theater Systems
Codec ID : A_DTS
Duration : 1h 52mn
Bit rate mode : Constant
Bit rate : 1 510 Kbps
Channel(s) : 6 channels
Channel positions : Front: L C R, Side: L R, LFE
Sampling rate : 48.0 KHz
Bit depth : 24 bits
Compression mode : Lossy
Delay relative to video : 33ms
Stream size : 1.19 GiB (14%)
Language : English

Text #1
ID : 4
Format : UTF-8
Codec ID : S_TEXT/UTF8
Codec ID/Info : UTF-8 Plain Text
Language : Russian

Text #2
ID : 5
Format : UTF-8
Codec ID : S_TEXT/UTF8
Codec ID/Info : UTF-8 Plain Text
Language : English
Свернуть
Скриншоты
Изображение

Изображение

Изображение
Свернуть
_________________
Изображение
Не в сети
Профиль  
 Добавлено: 2015-09-21 16:32 (спустя 4 года 3 месяца)
Аватара пользователя
Стаж: 7 лет 5 месяцев
Сообщений: 12
Раздайте пожалуйста :du_ma_et:
Не в сети
Профиль  
 Добавлено: 2015-09-22 03:50 (спустя 11 часов)
Аватара пользователя
Стаж: 8 лет 8 месяцев
Сообщений: 1702
Спасибок: 104
Лайков: 152
прочитал сначала не "убежище", а "уёб..ще" :hi_hi_hi: :-D .. надо скачать, спс!)) весит правда дофига... ну и ладно, все равно наверное на один раз кино?
Не в сети
Профиль  
Начать новую темуОтветить на тему  [ Сообщений: 3 ] 
Вы не можете начинать темы
Вы не можете отвечать на сообщения
Вы не можете редактировать свои сообщения
Вы не можете удалять свои сообщения
cron