Правила форума

  • В этом разделе создание новых тем Запрещено.
  • Для создания новых тем пользуйтесь Корневым разделом DVD и HD фильмы.
Начать новую темуОтветить на тему  [ 1 сообщение ] 
Торрент файл
Размер: 7.95 GB • Зарегистрирован: 3 года • Статус: Проверено
Скачан: 5 раз • Желающих скачать: 0 • Поблагодарили: 2 раза
 Раздают: 0  |  0 KB/s  ]   Качают: 0  |  0 KB/s  ] 
 Полного источника не было 2 года 4 месяца 
Сообщения
 Добавлено: 2013-11-24 02:14
Модератор релиз-группы
Аватара пользователя
Стаж: 7 лет 8 месяцев
Возраст: 29
Сообщений: 9789
Спасибок: 23733
Лайков: 103
Изображение

Убей меня нежно
Killing Me Softly


Год выпуска: 2001
Страна: США, Великобритания
Слоган: «Основной инстинкт сильнее страха смерти»
Жанр: триллер, драма, мелодрама, детектив
Продолжительность: 01:40:24
Перевод: Профессиональный (многоголосый, закадровый)
Режиссер: Чэнь Кайгэ
Сценарий: Кара Линдстрём, Шон Френч
Продюсер: Майкл Чинич, Джо Медьяк, Линда Майлс, Анна Чи, Дэниэл Голдберг
Оператор: Майкл Коултер
Композитор: Патрик Дойл
В ролях: Хэзер Грэм, Джозеф Файнс, Наташа МакЭлхоун, Ульрих Томсен, Иэн Харт, Джейсон Хьюз, Кика Маркам, Эми Роббинс, Ясмин Баннерман, Ребекка Р. Палмер, Ронан Вайберт, Оливия Пуле
Бюджет: $25 000 000
Сборы в России: $196 621
Мировая премьера: 10 мая 2002
Описание: Роковая встреча с неотразимым и загадочным парнем изменила размеренную жизнь Элис. Расставшись с надежным другом, она бросается в объятия Адама, понимая, что нашла вторую половину. И лишь после свадьбы, она осознает, что ничего не знает о супруге.
Вскоре анонимные письма с угрозами, таинственная запертая кладовая и странное поведение мужа заставляют Элис заглянуть в его прошлое. С этого момента ее жизнь превращается в кошмар, где пугающие совпадения и шокирующие открытия говорят лишь об одном: ее муж на самом деле хладнокровный убийца-маньяк.


Изображение User Rating: 7.120 (7349)
Изображение User Rating: 5.30 (11 250)
MPAA: R - Лицам до 17 лет обязательно присутствие взрослого
Раздача группы: Изображение
Качество: BDRip, 1080p
Формат: MKV
Видео: AVC; 1908x1036 (16:9); 9831 Kbps; 23,976 fps; 0,207 bit/pixel
Аудио №1: русский; AC3; 448 Kbps; CBR; 6 ch
Аудио №2: украинский; AC3; 192 Kbps; CBR; 2 ch
Аудио №3: AC3; 640 Kbps; CBR; 6 ch

Субтитры №1: русские
Субтитры №2: английские

mediainfo
Общее
Уникальный идентификатор : 214374996858116064792809033288264295494 (0xA1471F61407DD46791FD33EE47D5A446)
Полное имя : D:\TORRENT\Убей меня нежно.[R.G.Daredevil].mkv
Формат : Matroska
Размер файла : 7,95 Гбайт
Продолжительность : 1 ч. 40 м.
Общий поток : 11,3 Мбит/сек
Название фильма : ☭WIDDER☭
Дата кодирования : UTC 2013-09-22 08:53:46
Программа кодирования : mkvmerge v6.3.0 ('You can't stop me!') built on Jun 28 2013 20:09:41
Библиотека кодирования : libebml v1.3.0 + libmatroska v1.4.0

Видео
Идентификатор : 1
Формат : AVC
Формат/Информация : Advanced Video Codec
Профиль формата : High@L4.1
Параметр CABAC формата : Да
Параметр ReFrames формата : 4 кадра
Идентификатор кодека : V_MPEG4/ISO/AVC
Продолжительность : 1 ч. 40 м.
Битрейт : 10,1 Мбит/сек
Ширина : 1908 пикс.
Высота : 1036 пикс.
Соотношение сторон : 16:9
Частота кадров : 23,976 кадр/сек
Цветовое пространство : YUV
Подвыборка цветности : 4:2:0
Битовая глубина : 8 бит
Тип развёртки : Прогрессивная
Бит/(Пиксели*Кадры) : 0.212
Размер потока : 6,89 Гбайт (87%)
Заголовок : Убей меня нежно / Killing Me Softly (2002)
Библиотека кодирования : x264 core 138 r2358 9e941d1
Настройки программы : cabac=1 / ref=4 / deblock=1:-3:-3 / analyse=0x3:0x133 / me=umh / subme=11 / psy=1 / psy_rd=1.00:0.00 / mixed_ref=1 / me_range=48 / chroma_me=1 / trellis=2 / 8x8dct=1 / cqm=0 / deadzone=21,11 / fast_pskip=0 / chroma_qp_offset=-2 / threads=12 / lookahead_threads=1 / sliced_threads=0 / nr=0 / decimate=1 / interlaced=0 / bluray_compat=0 / constrained_intra=0 / bframes=6 / b_pyramid=2 / b_adapt=2 / b_bias=0 / direct=3 / weightb=1 / open_gop=0 / weightp=2 / keyint=240 / keyint_min=23 / scenecut=40 / intra_refresh=0 / rc_lookahead=60 / rc=2pass / mbtree=0 / bitrate=10059 / ratetol=1.0 / qcomp=0.60 / qpmin=0 / qpmax=69 / qpstep=4 / cplxblur=20.0 / qblur=0.5 / vbv_maxrate=50000 / vbv_bufsize=62500 / nal_hrd=none / ip_ratio=1.40 / pb_ratio=1.30 / aq=2:0.90
Язык : English

Аудио #1
Идентификатор : 2
Формат : AC-3
Формат/Информация : Audio Coding 3
Расширение режима : CM (complete main)
Идентификатор кодека : A_AC3
Продолжительность : 1 ч. 40 м.
Вид битрейта : Постоянный
Битрейт : 448 Кбит/сек
Каналы : 6 каналов
Расположение каналов : Front: L C R, Side: L R, LFE
Частота : 48,0 КГц
Битовая глубина : 16 бит
Метод сжатия : С потерями
Размер потока : 322 Мбайт (4%)
Заголовок : AC3, 448 Kbps (6 ch) Профессиональный двухголосый
Язык : Russian

Аудио #2
Идентификатор : 3
Формат : AC-3
Формат/Информация : Audio Coding 3
Расширение режима : CM (complete main)
Идентификатор кодека : A_AC3
Продолжительность : 1 ч. 40 м.
Вид битрейта : Постоянный
Битрейт : 192 Кбит/сек
Каналы : 2 канала
Расположение каналов : Front: L R
Частота : 48,0 КГц
Битовая глубина : 16 бит
Метод сжатия : С потерями
Размер потока : 138 Мбайт (2%)
Заголовок : AC3, 192 Kbps (2 ch) Профессиональный двухголосый
Язык : Ukrainian

Аудио #3
Идентификатор : 4
Формат : AC-3
Формат/Информация : Audio Coding 3
Расширение режима : CM (complete main)
Идентификатор кодека : A_AC3
Продолжительность : 1 ч. 40 м.
Вид битрейта : Постоянный
Битрейт : 640 Кбит/сек
Каналы : 6 каналов
Расположение каналов : Front: L C R, Side: L R, LFE
Частота : 48,0 КГц
Битовая глубина : 16 бит
Метод сжатия : С потерями
Размер потока : 460 Мбайт (6%)
Заголовок : AC3, 640 Kbps (6 ch) Original
Язык : English

Текст #1
Идентификатор : 5
Формат : UTF-8
Идентификатор кодека : S_TEXT/UTF8
Идентификатор кодека/Информация : UTF-8 Plain Text
Язык : Russian

Текст #2
Идентификатор : 6
Формат : UTF-8
Идентификатор кодека : S_TEXT/UTF8
Идентификатор кодека/Информация : UTF-8 Plain Text
Язык : English

Меню
00:00:00.000 : :Chapter 01
00:02:40.159 : :Chapter 02
00:07:46.299 : :Chapter 03
00:18:42.121 : :Chapter 04
00:28:17.695 : :Chapter 05
00:36:26.184 : :Chapter 06
00:44:10.481 : :Chapter 07
00:52:50.333 : :Chapter 08
01:05:47.526 : :Chapter 09
01:20:41.670 : :Chapter 10
01:36:55.475 : :Chapter 11
01:40:23.976 : :Chapter 12


Свернуть
"Знаете ли Вы, что..."
  • Полный вариант фильма имеет хронометраж 104 минуты.
Свернуть
Скриншоты

Изображение
Изображение
Изображение
Изображение
Изображение
Изображение
Изображение
Изображение
Свернуть


Тема поднималась пользователем volkov2009 2013-11-24 02:14.
Не в сети
Профиль  
Начать новую темуОтветить на тему  [ 1 сообщение ] 
Вы не можете начинать темы
Вы не можете отвечать на сообщения
Вы не можете редактировать свои сообщения
Вы не можете удалять свои сообщения