Правила форума

  • В этом разделе создание новых тем Запрещено.
  • Для создания новых тем пользуйтесь Корневым разделом DVD и HD фильмы.
Начать новую темуОтветить на тему  [ Сообщений: 2 ] 
Торрент файл
Размер: 6.6 GB • Зарегистрирован: 1 год 6 месяцев • Статус: Проверено
Скачан: 58 раз • Желающих скачать: 0 • Поблагодарили: 14 раз
 Раздают: 0  |  0 KB/s  ]   Качают: 0  |  0 KB/s  ] 
 Полного источника не было 22 дня 
Сообщения
 Добавлено: 2015-06-05 11:43
RG-ELEKTRO
Аватара пользователя
Стаж: 2 года 3 месяца
Сообщений: 7928
Спасибок: 53782
Лайков: 3304
Убить гонца / Kill the Messenger


«А ты умеешь хранить государственную тайну?»

Изображение


Год выпуска: 2014
Страна: США (Bluegrass Films, The Combine)
Жанр: триллер, драма, криминал, детектив, история
Продолжительность: 01:51:55
Перевод: Профессиональный (дубляж) [Лицензия] + Оригинальная звуковая дорожка
Субтитры: русские (форсированные), английские

Режиссёр: Майкл Куэста
В ролях: Джереми Реннер, Мэри Элизабет Уинстэд, Розмари ДеУитт, Барри Пеппер, Рэй Лиотта, Тим Блейк Нельсон, Майкл Кеннет Уильямс, Оливер Платт, Энди Гарсиа, Майкл Шин
Описание: Репортер, собирая материал для статьи, попадает в нестандартную ситуацию: он находит секретные файлы ЦРУ, в которых четко прописано причастие госорганов к транспортировке кокаина в особо крупных размерах в Калифорнию. Несмотря на все неприятности, последующие за разоблачением, публикация выходит в одном из самых известных журналов США. Существование репортера становится нежелательным для всех, кто хоть как-то соприкасался с «кокаиновым» делом. После широкой огласки статьи убить журналиста просто так нельзя, ведь тогда правдивость материала станет очевидной, зато ведомство может обвинить репортера в другом…
Изображение Изображение
Качество: BDRip 720р
Формат: MKV
Видео кодек: MPEG-4 AVC
Аудио кодек: AC3 / DTS
Видео: MPEG-4 AVC, 1280x534 (2,40:1), 7 059 kbps, 24.000 fps, 0.430 b/px
Аудио #1: АС3, 6 ch, 448 kbps, 48 000 Hz - [Профессиональный (дубляж) Blu-Ray]
Аудио #2: DTS, 6 ch, 768 kbps, 48 000 Hz [Оригинальная звуковая дорожка]
Субтитры: русские (форсированные), английские
"MI"
General
Unique ID : 183769355978316731290029392976168771023 (0x8A40B0C8249B6EA289B08F99AD965DCF)
Complete name : D:\фильмы\[2014] Убить гонца [BDRip] [720p].mkv
Format : Matroska
Format version : Version 4 / Version 2
File size : 6.60 GiB
Duration : 1h 51mn
Overall bit rate : 8 443 Kbps
Movie name : Убить гонца / Kill the Messenger (2014) BDRip [720p]
Encoded date : UTC 2015-06-04 15:47:54
Writing application : mkvmerge v7.8.0 ('River Man') 32bit built on Mar 27 2015 16:18:02
Writing library : libebml v1.3.1 + libmatroska v1.4.2

Video
ID : 1
Format : AVC
Format/Info : Advanced Video Codec
Format profile : High@L4.1
Format settings, CABAC : Yes
Format settings, ReFrames : 12 frames
Codec ID : V_MPEG4/ISO/AVC
Duration : 1h 51mn
Bit rate : 7 059 Kbps
Width : 1 280 pixels
Height : 534 pixels
Display aspect ratio : 2.40:1
Frame rate mode : Constant
Frame rate : 24.000 fps
Color space : YUV
Chroma subsampling : 4:2:0
Bit depth : 8 bits
Scan type : Progressive
Bits/(Pixel*Frame) : 0.430
Stream size : 5.52 GiB (84%)
Title : [2014] Убить гонца / Kill the Messenger [BDRip] [720p]
Writing library : x264 core 144 r2525kMod 40bb568
Encoding settings : cabac=1 / ref=12 / deblock=1:-3:-3 / analyse=0x3:0x133 / me=umh / subme=10 / psy=1 / fade_compensate=0.00 / psy_rd=1.10:0.00 / mixed_ref=1 / me_range=16 / chroma_me=1 / trellis=2 / 8x8dct=1 / cqm=0 / deadzone=21,11 / fast_pskip=0 / chroma_qp_offset=-2 / threads=12 / lookahead_threads=2 / sliced_threads=0 / nr=0 / decimate=0 / interlaced=0 / bluray_compat=0 / constrained_intra=0 / fgo=0 / bframes=9 / b_pyramid=2 / b_adapt=2 / b_bias=0 / direct=3 / weightb=1 / open_gop=0 / weightp=2 / keyint=250 / keyint_min=24 / scenecut=40 / intra_refresh=0 / rc=crf / mbtree=0 / crf=16.5000 / qcomp=0.60 / qpmin=0 / qpmax=69 / qpstep=4 / ip_ratio=1.40 / pb_ratio=1.30 / aq=3:0.70 / zones=4,198,crf=10.5/275,548,crf=10.5/1164,1191,crf=10.5/62612,62988,crf=15/63058,63775,crf=15/119878,120405,crf=14/120542,120888,crf=14/121339,121457,crf=15/151191,161159,crf=22
Language : English
Default : Yes
Forced : No

Audio #1
ID : 2
Format : AC-3
Format/Info : Audio Coding 3
Mode extension : CM (complete main)
Format settings, Endianness : Big
Codec ID : A_AC3
Duration : 1h 51mn
Bit rate mode : Constant
Bit rate : 448 Kbps
Channel(s) : 6 channels
Channel positions : Front: L C R, Side: L R, LFE
Sampling rate : 48.0 KHz
Bit depth : 16 bits
Compression mode : Lossy
Stream size : 359 MiB (5%)
Title : Дублированный - Blu-Ray
Language : Russian
Default : Yes
Forced : No

Audio #2
ID : 3
Format : DTS
Format/Info : Digital Theater Systems
Mode : 16
Format settings, Endianness : Big
Codec ID : A_DTS
Duration : 1h 51mn
Bit rate mode : Constant
Bit rate : 768 Kbps
Channel(s) : 6 channels
Channel positions : Front: L C R, Side: L R, LFE
Sampling rate : 48.0 KHz
Bit depth : 16 bits
Compression mode : Lossy
Stream size : 615 MiB (9%)
Title : Оригинальный
Language : English
Default : No
Forced : No

Text #1
ID : 4
Format : UTF-8
Codec ID : S_TEXT/UTF8
Codec ID/Info : UTF-8 Plain Text
Title : Russian - Forced
Language : Russian
Default : Yes
Forced : No

Text #2
ID : 5
Format : UTF-8
Codec ID : S_TEXT/UTF8
Codec ID/Info : UTF-8 Plain Text
Title : English
Language : English
Default : No
Forced : No

Menu
00:00:00.000 : en:00:00:00.000
00:09:41.792 : en:00:09:41.792
00:17:08.625 : en:00:17:08.625
00:29:09.875 : en:00:29:09.875
00:37:45.833 : en:00:37:45.833
00:44:37.708 : en:00:44:37.708
00:56:24.917 : en:00:56:24.917
01:03:09.208 : en:01:03:09.208
01:13:08.375 : en:01:13:08.375
01:19:59.250 : en:01:19:59.250
01:30:12.958 : en:01:30:12.958
01:42:57.000 : en:01:42:57.000

Свернуть

Скриншоты
Изображение
Изображение
Изображение
Свернуть

Изображение


Изображение Изображение
Не в сети
Профиль  
 Добавлено: 2015-06-17 07:38 (спустя 11 дней)
Top-releaser
Аватара пользователя
Стаж: 7 лет 4 месяца
Возраст: 38
Сообщений: 5348
Спасибок: 10073
Лайков: 2938
Неплохой фильм!
Не в сети
Профиль  
Начать новую темуОтветить на тему  [ Сообщений: 2 ] 
Вы не можете начинать темы
Вы не можете отвечать на сообщения
Вы не можете редактировать свои сообщения
Вы не можете удалять свои сообщения