Правила форума

  • В этом разделе создание новых тем Запрещено.
  • Для создания новых тем пользуйтесь Корневым разделом DVD и HD фильмы.
Начать новую темуОтветить на тему  [ Сообщений: 3 ] 
Торрент файл
Размер: 3.36 GB • Зарегистрирован: 4 года 1 месяц • Статус: Проверено
Скачан: 14 раз • Желающих скачать: 0 • Поблагодарили: 2 раза
 Раздают: 0  |  0 KB/s  ]   Качают: 0  |  0 KB/s  ] 
 Полного источника не было 3 года 2 месяца 
Сообщения
 Добавлено: 2012-10-28 21:13
Модератор
Аватара пользователя
Стаж: 8 лет 1 месяц
Сообщений: 1991
Спасибок: 129863
Лайков: 20
Убийства / Headshot


«Bangkok's most dangerous cop is about to have his world turned upside down.»



Изображение
Год выпуска: 2011
Страна: Таиланд, Франция
Жанр: триллер, драма, криминал
Продолжительность:
01:45:08

Перевод: Авторский (Замез Вячеслав)

Режиссер: Пен-Ек Ратанаруанг
Сценарий: Пен-Ек Ратанаруанг, Win Lyovarin
Продюсер: Raymond Phathanavirangoon, Pawas Sawatchaiyamet, Эмили Жорж, Tanja Meissner
Оператор: Чанкит Чамнивикайпхонг
Композитор: Vichaya Vatanasapt

В ролях:
Jayanama Nopachai (Tul), Sirin Horwang (Rin), Chanokporn Sayoungkul (Joy / Tiwa), Apisit Opas-iemlikhit (Torpong), Kiat Punpiputt (Dr. Suang), Theeradanai Suwannahom (Tin)

Описание: Во время выполнения очередного задания профессиональный киллер получает пулю в голову, но остается в живых, пусть и с неприятными последствиями. Из-за травмы мозга киллер отныне видит окружающий мир вниз тормашками. Две трети картины - это флэшбек к роковому выстрелу. История семи лет жизни человека, который был честным копом из агентства по борьбе с наркотиками, но однажды пошел против системы, был подставлен, предан, отсидел в тюрьме три года, после чего оказался наемным убийцей в подпольной организации тайных ницшеанцев и борцов с преступностью.


Изображение: 6.333 (45)
Изображение: 6.20 (548)


Доп. Информация
Сборы в США: $1 138
Мировая премьера: 11 сентября 2011

Свернуть


Качество: BDRip 720p

Формат: MKV
Видео: AVC; 1280x640 (2.000); 4000 Kbps; 23,976 fps; 0,204 bpp
Аудио №1: русский; MP3; 128 Kbps; CBR; 2 ch
Аудио №2: Thai; AC3; 448 Kbps; CBR; 6 ch; 16 bit
Субтитры: английские



BDInfo
Общее
Уникальный идентификатор : 171106741972793543248561027003151729306 (0x80B9F5B5CB1036D0B3890C0B7782C29A)
Полное имя : E:\Headshot.2011.L1.BDRip.720p.mkv
Формат : Matroska
Версия формата : Version 2
Размер файла : 3,36 Гбайт
Продолжительность : 1 ч. 45 м.
Общий поток : 4578 Кбит/сек
Дата кодирования : UTC 2012-10-23 20:19:39
Программа кодирования : mkvmerge v5.8.0 ('No Sleep / Pillow') built on Sep 2 2012 15:37:04
Библиотека кодирования : libebml v1.2.3 + libmatroska v1.3.0

Видео
Идентификатор : 1
Формат : AVC
Формат/Информация : Advanced Video Codec
Профиль формата : High@L3.1
Параметр CABAC формата : Да
Параметр ReFrames формата : 5 кадров
Идентификатор кодека : V_MPEG4/ISO/AVC
Продолжительность : 1 ч. 45 м.
Битрейт : 4000 Кбит/сек
Ширина : 1280 пикселей
Высота : 640 пикселей
Соотношение сторон : 2,000
Режим частоты кадров : Постоянный
Частота кадров : 23,976 кадра/сек
Цветовое пространство : YUV
Субдискретизация насыщенности : 4:2:0
Битовая глубина : 8 бит
Тип развёртки : Прогрессивная
Бит/(Пиксели*Кадры) : 0.204
Размер потока : 2,87 Гбайт (85%)
Заголовок : Headshot (2011)
Библиотека кодирования : x264 core 128 r2216 198a7ea
Настройки программы : cabac=1 / ref=5 / deblock=1:0:0 / analyse=0x3:0x133 / me=umh / subme=9 / psy=1 / psy_rd=1.00:0.00 / mixed_ref=1 / me_range=16 / chroma_me=1 / trellis=1 / 8x8dct=1 / cqm=0 / deadzone=21,11 / fast_pskip=1 / chroma_qp_offset=-2 / threads=12 / lookahead_threads=2 / sliced_threads=0 / nr=0 / decimate=1 / interlaced=0 / bluray_compat=0 / constrained_intra=0 / bframes=5 / b_pyramid=2 / b_adapt=2 / b_bias=0 / direct=3 / weightb=1 / open_gop=0 / weightp=2 / keyint=240 / keyint_min=23 / scenecut=40 / intra_refresh=0 / rc_lookahead=40 / rc=2pass / mbtree=1 / bitrate=4000 / ratetol=1.0 / qcomp=0.60 / qpmin=0 / qpmax=69 / qpstep=4 / cplxblur=20.0 / qblur=0.5 / ip_ratio=1.40 / aq=1:1.00 / zones=149162,151220,q=41
Default : Да
Forced : Нет

Аудио #1
Идентификатор : 2
Формат : MPEG Audio
Версия формата : Version 1
Профиль формата : Layer 3
Режим : Joint stereo
Расширение режима : MS Stereo
Идентификатор кодека : A_MPEG/L3
Идентификатор кодека/Подсказка : MP3
Продолжительность : 1 ч. 45 м.
Вид битрейта : Постоянный
Битрейт : 128 Кбит/сек
Каналы : 2 канала
Частота : 48,0 КГц
Метод сжатия : С потерями
Размер потока : 96,3 Мбайт (3%)
Заголовок : Rus Zamez
Язык : Russian
Default : Да
Forced : Нет

Аудио #2
Идентификатор : 3
Формат : AC-3
Формат/Информация : Audio Coding 3
Расширение режима : CM (complete main)
Параметр Endianness формата : Big
Идентификатор кодека : A_AC3
Продолжительность : 1 ч. 45 м.
Вид битрейта : Постоянный
Битрейт : 448 Кбит/сек
Каналы : 6 каналов
Расположение каналов : Front: L C R, Side: L R, LFE
Частота : 48,0 КГц
Битовая глубина : 16 бит
Метод сжатия : С потерями
Размер потока : 337 Мбайт (10%)
Заголовок : Thai 5.1 AC3 448
Язык : Thai
Default : Нет
Forced : Нет

Текст
Идентификатор : 4
Формат : UTF-8
Идентификатор кодека : S_TEXT/UTF8
Идентификатор кодека/Информация : UTF-8 Plain Text
Заголовок : Eng subtitles
Язык : English
Default : Да
Forced : Нет

Меню
00:00:00.000 : en:
00:08:57.285 : en:
00:16:50.799 : en:
00:23:42.794 : en:
00:35:04.642 : en:
00:44:24.827 : en:
00:52:35.650 : en:
01:03:23.214 : en:
01:10:34.061 : en:
01:19:51.868 : en:
01:27:43.715 : en:
01:39:33.632 : en:

Свернуть
Скриншоты
Изображение
Изображение
Изображение
Свернуть

_________________
Себе ты можешь не качать, но раздавать другим обязан!
Не в сети
Профиль  
 Добавлено: 2012-10-29 11:15 (спустя 14 часов)
Аватара пользователя
Стаж: 7 лет 11 месяцев
Сообщений: 995
Лайков: 74
кто к нас названия фильмов переводит!! покажите мне этого ------------------------- ------------ -----------!!!!!
Не в сети
Профиль  
 Добавлено: 2012-10-31 08:19 (спустя 1 день 21 час)
Стаж: 5 лет 10 месяцев
Сообщений: 280
Лайков: 8
Вот Пен-Ек Ратанаруанг и перевел...говно фильм.....кто главный герой понял в конце только....на лицо чего то все одинаковые ,вместе с пан Еком)))гыыыыыы
Не в сети
Профиль  
Начать новую темуОтветить на тему  [ Сообщений: 3 ] 
Вы не можете начинать темы
Вы не можете отвечать на сообщения
Вы не можете редактировать свои сообщения
Вы не можете удалять свои сообщения