Правила форума

  • В этом разделе создание новых тем Запрещено.
  • Для создания новых тем пользуйтесь Корневым разделом DVD и HD фильмы.
Начать новую темуОтветить на тему  [ Сообщений: 11 ] 
Торрент файл
Размер: 8.88 GB • Зарегистрирован: 5 лет 7 месяцев • Статус: Проверено
Скачан: 451 раз • Желающих скачать: 0 • Поблагодарили: 78 раз
 Раздают: 0  |  0 KB/s  ]   Качают: 0  |  0 KB/s  ] 
 Полного источника не было 6 часов 
Сообщения
 Добавлено: 2011-05-04 16:30
Модератор
Аватара пользователя
Стаж: 8 лет 1 месяц
Возраст: 20
Сообщений: 32130
Спасибок: 98569
Лайков: 80
Убойные каникулы / Tucker & Dale vs Evil

Изображение

Год выпуска: 2010
Страна: Канада (Eden Rock Media)
Слоган: «Куча жертв... ни одного маньяка»
Жанр: ужасы, комедия
Продолжительность: 01:28:34
Перевод: Профессиональный (дубляж) + Оригинальная звуковая дорожка [лицензия]
Режиссёр: Эли Крэйг
В ролях: Тайлер Лэбин, Алан Тьюдик, Кэти Боуден, Джесси Мосс, Филип Грэйнджер, Брэндон Джей МакЛарен, Кристи Лэйн, Челан Симмонс, Трэвис Нельсон, Алекс Арсено
Описание: Группа студентов колледжа отправляется за город, чтобы вовсю оторваться на выходных: попить пивка, поплавать в озере и подышать чистым лесным воздухом. Но уже в первый день они сталкиваются с неотесанными фермерами Такером и Дэйлом, также решившими как следует оттянуться на природе. Приняв этих диковатых, но, в сущности, симпатичных ребят за «злобных местных», горожане решают дать деревенщине жесткий отпор. Но с каждым их шагом становится только хуже…
Изображение
Изображение 7.7/10

Качество: BDRip 1080p R5
Формат: MKV
Видео: 11.3 mb/s, 1920x816, 23,976 кадр/сек
Аудио: Изображение Russian / Изображение English: DTS, 1510 kb/s (6 ch)
Субтитры: нет
Изображение
MediaInfo
Общее
Полное имя : Ubojnye.kanikuly.2010.x264.BDRip.1080p.RUS.ENG.mkv
Формат : Matroska
Размер файла : 8,88 Гбайт
Продолжительность : 1 ч. 28 м.
Общий поток : 14,3 Мбит/сек
Дата кодирования : UTC 2011-05-04 09:04:01
Программа кодирования : mkvmerge v2.1.0 ('Another Place To Fall') built on Aug 19 2007 13:40:07
Библиотека кодирования : libebml v0.7.7 + libmatroska v0.8.1

Видео
Идентификатор : 1
Формат : AVC
Формат/Информация : Advanced Video Codec
Профиль формата : High@L4.1
Параметр CABAC формата : Да
Параметр ReFrames формата : 5 кадры
Идентификатор кодека : V_MPEG4/ISO/AVC
Продолжительность : 1 ч. 28 м.
Битрейт : 11,3 Мбит/сек
Ширина : 1920 пикс.
Высота : 816 пикс.
Соотношение сторон : 2,35:1
Частота кадров : 23,976 кадр/сек
Цветовое пространство : YUV
Подвыборка цветности : 4:2:0
Битовая глубина : 8 бит
Тип развёртки : Прогрессивная
Бит/(Пиксели*Кадры) : 0.302
Размер потока : 6,83 Гбайт (77%)
Библиотека кодирования : x264 core 115 r1947 b5a8ad7
Настройки программы : cabac=1 / ref=5 / deblock=1:0:0 / analyse=0x3:0x133 / me=umh / subme=7 / psy=1 / psy_rd=1.00:0.00 / mixed_ref=1 / me_range=16 / chroma_me=1 / trellis=1 / 8x8dct=1 / cqm=0 / deadzone=21,11 / fast_pskip=0 / chroma_qp_offset=-2 / threads=12 / sliced_threads=0 / nr=0 / decimate=1 / interlaced=0 / bluray_compat=0 / constrained_intra=0 / bframes=3 / b_pyramid=2 / b_adapt=1 / b_bias=0 / direct=1 / weightb=1 / open_gop=0 / weightp=2 / keyint=250 / keyint_min=23 / scenecut=40 / intra_refresh=0 / rc_lookahead=40 / rc=2pass / mbtree=1 / bitrate=11326 / ratetol=1.0 / qcomp=0.60 / qpmin=0 / qpmax=69 / qpstep=4 / cplxblur=20.0 / qblur=0.5 / ip_ratio=1.40 / aq=1:1.00
Язык : English

Аудио #1
Идентификатор : 2
Формат : DTS
Формат/Информация : Digital Theater Systems
Идентификатор кодека : A_DTS
Продолжительность : 1 ч. 28 м.
Вид битрейта : Постоянный
Битрейт : 1510 Кбит/сек
Канал(ы) : 6 канала(ов)
Расположение каналов : Front: L C R, Side: L R, LFE
Частота : 48,0 КГц
Битовая глубина : 24 бит
Метод сжатия : С потерями
Размер потока : 956 Мбайт (11%)
Заголовок : DTS.1510
Язык : Russian

Аудио #2
Идентификатор : 3
Формат : DTS
Формат/Информация : Digital Theater Systems
Идентификатор кодека : A_DTS
Продолжительность : 1 ч. 28 м.
Вид битрейта : Постоянный
Битрейт : 1510 Кбит/сек
Канал(ы) : 6 канала(ов)
Расположение каналов : Front: L C R, Side: L R, LFE
Частота : 48,0 КГц
Битовая глубина : 24 бит
Метод сжатия : С потерями
Размер потока : 956 Мбайт (11%)
Свернуть
Скриншоты
Изображение
Изображение
Изображение
Изображение
Свернуть
Не в сети
Профиль  
 Добавлено: 2011-05-30 19:45 (спустя 26 дней)
Аватара пользователя
Стаж: 5 лет 6 месяцев
Сообщений: 733
Спасибок: 1286
Лайков: 1
Второй скриншот производит отличное впечатление :-D
Фильм стоит посмотреть? :)
Не в сети
Профиль  
 Добавлено: 2011-05-30 20:51 (спустя 1 час 6 минут)
Аватара пользователя
Стаж: 8 лет 2 месяца
Сообщений: 74
Спасибок: 30
прикольное кино. лично мне понравилось :ya_hoo_oo:
Не в сети
Профиль  
 Добавлено: 2011-05-31 18:14 (спустя 21 час)
Аватара пользователя
Стаж: 5 лет 6 месяцев
Сообщений: 733
Спасибок: 1286
Лайков: 1
Тупо фильм, не люблю такие ужастики :ze_le_ny:
Но девушка, которая на втором скрине, очень сильно понравилась :an)(gel:
Не в сети
Профиль  
 Добавлено: 2011-06-10 19:44 (спустя 10 дней)
Аватара пользователя
Стаж: 8 лет 3 месяца
Возраст: 43
Сообщений: 3290
Спасибок: 21012
Лайков: 3
пора отлеплять :(
_________________
Изображение
Не в сети
Профиль  
 Добавлено: 2012-07-13 20:01 (спустя 1 год 1 месяц)
Аватара пользователя
Стаж: 8 лет 3 месяца
Возраст: 43
Сообщений: 3290
Спасибок: 21012
Лайков: 3
хороший фильм :)
_________________
Изображение
Не в сети
Профиль  
 Добавлено: 2013-05-19 20:34 (спустя 10 месяцев)
Стаж: 8 лет 2 месяца
Возраст: 25
Сообщений: 4
Спасибок: 21
Пасибки =)
Не в сети
Профиль  
 Добавлено: 2013-06-09 20:51 (спустя 21 день)
Аватара пользователя
Стаж: 4 года
Сообщений: 224
Лайков: 69
фильм прикольный :-D
Не в сети
Профиль  
 Добавлено: 2013-06-23 13:31 (спустя 13 дней)
Стаж: 8 лет 2 месяца
Сообщений: 1
Спасибок: 1
Фильм отличный! Посмотрели с женой пару раз - очень ржачный. Рекомендую к просмотру. Одно плохо - конец немножко смазанный вышел, но в общем и целом впечатления только положительные.
Не в сети
Профиль  
 Добавлено: 2013-07-13 12:42 (спустя 19 дней)
Аватара пользователя
Стаж: 4 года 7 месяцев
Возраст: 33
Сообщений: 5
Фильм супер! Всем смотреть :co_ol:
Не в сети
Профиль  
 Добавлено: 2014-12-22 22:39 (спустя 1 год 5 месяцев)
Аватара пользователя
Стаж: 5 лет 6 месяцев
Возраст: 23
Сообщений: 484
Спасибок: 1403
Лайков: 1
раздайте
Не в сети
Профиль  
Начать новую темуОтветить на тему  [ Сообщений: 11 ] 
Вы не можете начинать темы
Вы не можете отвечать на сообщения
Вы не можете редактировать свои сообщения
Вы не можете удалять свои сообщения