Правила форума

  • В этом разделе создание новых тем Запрещено.
  • Для создания новых тем пользуйтесь Корневым разделом DVD и HD фильмы.
Начать новую темуОтветить на тему  [ Сообщений: 3 ] 
Торрент файл
Размер: 4.64 GB • Зарегистрирован: 5 лет 7 месяцев • Статус: Проверено
Скачан: 113 раз • Желающих скачать: 0 • Поблагодарили: 18 раз
 Раздают: 0  |  0 KB/s  ]   Качают: 0  |  0 KB/s  ] 
 Полного источника не было 3 года 1 месяц 
Сообщения
 Добавлено: 2011-05-04 08:52
Аватара пользователя
Стаж: 7 лет
Сообщений: 3240
Спасибок: 15642
Лайков: 2
Убойные каникулы / Tucker & Dale vs Evil

Изображение

Год выпуска: 2010
Страна: Канада (Eden Rock Media)
Слоган: «Куча жертв... ни одного маньяка»
Жанр: ужасы, комедия
Продолжительность: 01:28:34
Перевод: Профессиональный (дубляж) + Оригинальная звуковая дорожка [лицензия]

Режиссёр: Эли Крэйг
В ролях: Тайлер Лэбин, Алан Тьюдик, Кэти Боуден, Джесси Мосс, Филип Грэйнджер, Брэндон Джей МакЛарен, Кристи Лэйн, Челан Симмонс, Трэвис Нельсон, Алекс Арсено
Описание: Группа студентов колледжа отправляется за город, чтобы вовсю оторваться на выходных: попить пивка, поплавать в озере и подышать чистым лесным воздухом. Но уже в первый день они сталкиваются с неотесанными фермерами Такером и Дэйлом, также решившими как следует оттянуться на природе. Приняв этих диковатых, но, в сущности, симпатичных ребят за «злобных местных», горожане решают дать деревенщине жесткий отпор. Но с каждым их шагом становится только хуже…
Изображение
Изображение 7.7/10

Качество: BDRip, 720p
Формат: MKV
Видео кодек: H264 (AVC)
Аудио кодек: AC3 (Dolby Digital)
Видео: 5549 kb/s, 1280x544, 23.976 fps, 8 bits
Аудио #1: Russian: AC3, 448 kbps (6 ch), 48.0 KHz, 16 bits [Профессиональный (дубляж)]
Аудио #2: English: DTS, 1510 kb/s (6 ch), 48.0 KHz, 24 bits [Оригинальная звуковая дорожка]
Изображение
MediaInfo
Video
ID : 1
Format : AVC
Format/Info : Advanced Video Codec
Format profile : High@L4.1
Format settings, CABAC : Yes
Format settings, ReFrames : 5 frames
Codec ID : V_MPEG4/ISO/AVC
Duration : 1mn 2s
Bit rate : 4 979 Kbps
Width : 1 280 pixels
Height : 544 pixels
Display aspect ratio : 2.35:1
Frame rate : 23.976 fps
Color space : YUV
Chroma subsampling : 4:2:0
Bit depth : 8 bits
Scan type : Progressive
Bits/(Pixel*Frame) : 0.298
Stream size : 37.4 MiB (70%)
Language : English

Audio #1
ID : 2
Format : AC-3
Format/Info : Audio Coding 3
Mode extension : CM (complete main)
Codec ID : A_AC3
Duration : 1mn 2s
Bit rate mode : Constant
Bit rate : 448 Kbps
Channel(s) : 6 channels
Channel positions : Front: L C R, Side: L R, LFE
Sampling rate : 48.0 KHz
Bit depth : 16 bits
Compression mode : Lossy
Video delay : 7ms
Stream size : 3.36 MiB (6%)
Title : Russian @ DD 5.1 @ 448 kbps
Language : Russian

Audio #2
ID : 3
Format : DTS
Format/Info : Digital Theater Systems
Codec ID : A_DTS
Duration : 1mn 2s
Bit rate mode : Constant
Bit rate : 1 510 Kbps
Channel(s) : 6 channels
Channel positions : Front: L C R, Side: L R, LFE
Sampling rate : 48.0 KHz
Bit depth : 24 bits
Compression mode : Lossy
Video delay : 82ms
Stream size : 11.3 MiB (21%)
Title : English @ DTS 5.1 @ 1510 kbps
Language : English
Свернуть
Скриншоты
Изображение
Изображение
Изображение
Свернуть


Последний раз редактировалось sGo1d 2011-05-04 14:47, всего редактировалось 1 раз.
Не в сети
Профиль  
 Добавлено: 2011-05-04 13:32 (спустя 4 часа)
Top-releaser
Аватара пользователя
Стаж: 6 лет 11 месяцев
Возраст: 23
Сообщений: 2084
Спасибок: 11191
Лайков: 13

10.01.2011 ОБНОВЛЕНЫ ПРАВИЛА:

Внимание: HD-разделов необходимы развернутые технические данные:
Для HD: Отчет MediaInfo или BDInfo (под спойлером)
[Инструкция] Как получить информацию по видео файлу.
_________________
Изображение
РАЗДАЧИ БОЛЬШЕ НЕ ПОДДЕРЖИВАЮ, простите.
Не в сети
Профиль  
 Добавлено: 2011-05-04 15:20 (спустя 1 час 47 минут)
Кинокомментатор
Аватара пользователя
Стаж: 9 лет 1 месяц
Сообщений: 1332
Лайков: 54
ЖАРА КИНО!)
Не в сети
Профиль  
Начать новую темуОтветить на тему  [ Сообщений: 3 ] 
Вы не можете начинать темы
Вы не можете отвечать на сообщения
Вы не можете редактировать свои сообщения
Вы не можете удалять свои сообщения