Правила форума

  • В этом разделе создание новых тем Запрещено.
  • Для создания новых тем пользуйтесь Корневым разделом DVD и HD фильмы.
Начать новую темуОтветить на тему  [ Сообщений: 2 ] 
Торрент файл
Размер: 11.66 GB • Зарегистрирован: 4 года 1 месяц • Статус: Проверено
Скачан: 165 раз • Желающих скачать: 0 • Поблагодарили: 34 раза
 Раздают: 0  |  0 KB/s  ]   Качают: 0  |  0 KB/s  ] 
 Полного источника не было 2 года 3 месяца 
Сообщения
 Добавлено: 2012-11-08 10:24
Top-releaser
Аватара пользователя
Стаж: 8 лет 9 месяцев
Сообщений: 479
Спасибок: 20189
Лайков: 16
Изображение

Убойное Рождество Гарольда и Кумара

A Very Harold & Kumar 3D Christmas


«Christmas comes prematurely»

Год выпуска: 2011
Страна: Изображение США; Kingsgate Films, Mandate Pictures, New Line Cinema
Жанр: Комедия
Продолжительность: 01:29:40
Перевод: Профессиональный (многоголосый), Двухголосый (Кубик в кубе), Оригинал
Субтитры: Русские, английские

Режиссёр: Тодд Штраус-Шульсон / Todd Strauss-Schulson

В ролях: Пэттон Освальт, Изабелла Жельняк, Кэл Пенн, Остин Бикел, Инга Р. Уилсон, Джон Чо, Бобби Ли, Томас Леннон, Амир Блюменфилд, Паула Гарсес...

Описание: Прошло шесть лет после приключения в проливе Гуантанамо. На этот раз закадычные друзья Гарольд Ли и Кумар Пател сорвали праздник, случайно спалив дотла призовую рождественскую ель тестя Гарольда.


Качество: BDRip 1080p
Формат: MKV

Видео: AVC at 14,8 Мбит/сек, 1920 x 800 (2.400) at 23.976 fps

Аудио 1: AC3 Dolby Digital, 384 Кбит/сек, 6 канала(ов), 48,0 КГц [Многоголосый]
Аудио 2: DTS at 1510 Кбит/сек, 6 канала(ов), 48,0 КГц [Кубик в кубе]
Аудио 3: DTS at 1510 Кбит/сек, 6 канала(ов), 48,0 КГц [Оригинал]

Дополнительно: Присутствует ненормативная лексика.
Раздача: Изображение


Изображение
MediaInfo

Общее
Уникальный идентификатор : 170624275708374932073477261922002112270 (0x805D0A496866419D81D378074DC58F0E)
Полное имя : C:\Users\Домашний\Desktop\Ubojnoe Rozhdestvo Garolda i Kumara.2011.BDRip.1080p[nntt].mkv
Формат : Matroska
Размер файла : 11,7 Гбайт
Продолжительность : 1 ч. 29 м.
Общий поток : 18,6 Мбит/сек
Дата кодирования : UTC 2012-11-07 18:28:43
Программа кодирования : mkvmerge v5.8.0 ('No Sleep / Pillow') built on Sep 2 2012 15:37:04
Библиотека кодирования : libebml v1.2.3 + libmatroska v1.3.0

Видео
Идентификатор : 1
Формат : AVC
Формат/Информация : Advanced Video Codec
Профиль формата : High@L4.1
Параметр CABAC формата : Да
Параметр ReFrames формата : 5 кадры
Идентификатор кодека : V_MPEG4/ISO/AVC
Продолжительность : 1 ч. 29 м.
Битрейт : 14,8 Мбит/сек
Ширина : 1920 пикс.
Высота : 800 пикс.
Соотношение сторон : 2,40:1
Частота кадров : 23,976 кадр/сек
Цветовое пространство : YUV
Подвыборка цветности : 4:2:0
Битовая глубина : 8 бит
Тип развёртки : Прогрессивная
Бит/(Пиксели*Кадры) : 0.403
Размер потока : 9,30 Гбайт (80%)
Заголовок : Very.Harold.Kumar.Christmas.2011.BDRip.1080p.IRONCLUB
Библиотека кодирования : x264 core 116 r2074 2641b9e
Настройки программы : cabac=1 / ref=5 / deblock=1:-3:-3 / analyse=0x3:0x113 / me=umh / subme=11 / psy=1 / psy_rd=1.05:0.05 / mixed_ref=1 / me_range=48 / chroma_me=1 / trellis=2 / 8x8dct=1 / cqm=0 / deadzone=21,11 / fast_pskip=0 / chroma_qp_offset=-2 / threads=12 / sliced_threads=0 / nr=0 / decimate=1 / interlaced=0 / bluray_compat=0 / constrained_intra=0 / bframes=9 / b_pyramid=2 / b_adapt=2 / b_bias=0 / direct=3 / weightb=1 / open_gop=0 / weightp=2 / keyint=250 / keyint_min=23 / scenecut=40 / intra_refresh=0 / rc_lookahead=40 / rc=crf / mbtree=1 / crf=17.5 / qcomp=0.60 / qpmin=10 / qpmax=51 / qpstep=4 / vbv_maxrate=50000 / vbv_bufsize=62500 / crf_max=0.0 / nal_hrd=none / ip_ratio=1.40 / aq=1:1.00
Язык : English

Аудио #1
Идентификатор : 2
Формат : AC-3
Формат/Информация : Audio Coding 3
Расширение режима : CM (complete main)
Идентификатор кодека : A_AC3
Продолжительность : 1 ч. 29 м.
Вид битрейта : Постоянный
Битрейт : 384 Кбит/сек
Канал(ы) : 6 канала(ов)
Расположение каналов : Front: L C R, Side: L R, LFE
Частота : 48,0 КГц
Битовая глубина : 16 бит
Метод сжатия : С потерями
Размер потока : 246 Мбайт (2%)
Заголовок : MVO
Язык : Russian

Аудио #2
Идентификатор : 3
Формат : DTS
Формат/Информация : Digital Theater Systems
Идентификатор кодека : A_DTS
Продолжительность : 1 ч. 29 м.
Вид битрейта : Постоянный
Битрейт : 1510 Кбит/сек
Канал(ы) : 6 канала(ов)
Расположение каналов : Front: L C R, Side: L R, LFE
Частота : 48,0 КГц
Битовая глубина : 24 бит
Метод сжатия : С потерями
Размер потока : 968 Мбайт (8%)
Заголовок : DTS 5.1 @ 1510 kb/s [Russian MVO, Kubik v Kube]
Язык : Russian

Аудио #3
Идентификатор : 4
Формат : DTS
Формат/Информация : Digital Theater Systems
Идентификатор кодека : A_DTS
Продолжительность : 1 ч. 29 м.
Вид битрейта : Постоянный
Битрейт : 1510 Кбит/сек
Канал(ы) : 6 канала(ов)
Расположение каналов : Front: L C R, Side: L R, LFE
Частота : 48,0 КГц
Битовая глубина : 24 бит
Метод сжатия : С потерями
Размер потока : 968 Мбайт (8%)
Заголовок : DTS 5.1 @ 1510 kb/s [English]
Язык : English

Текст #1
Идентификатор : 5
Формат : UTF-8
Идентификатор кодека : S_TEXT/UTF8
Идентификатор кодека/Информация : UTF-8 Plain Text
Заголовок : Russian [Full]
Язык : Russian

Текст #2
Идентификатор : 6
Формат : UTF-8
Идентификатор кодека : S_TEXT/UTF8
Идентификатор кодека/Информация : UTF-8 Plain Text
Заголовок : English [SDH]
Язык : English

Меню
00:00:00.000 : :Chapter 01
00:09:31.779 : :Chapter 02
00:21:44.594 : :Chapter 03
00:30:48.555 : :Chapter 04
00:39:23.027 : :Chapter 05
00:49:27.798 : :Chapter 06
01:00:44.349 : :Chapter 07
01:09:09.186 : :Chapter 08
01:21:18.164 : :Chapter 09


Свернуть
Скриншоты

Изображение
Изображение
Изображение
Изображение
Изображение
Свернуть
_________________
Изображение
Изображение
Не в сети
Профиль  
 Добавлено: 2012-11-08 10:42 (спустя 18 минут)
Аватара пользователя
Стаж: 6 лет 5 месяцев
Сообщений: 138
Спасибок: 1118
Лайков: 1
:-D
_________________
Изображение
Не в сети
Профиль  
Начать новую темуОтветить на тему  [ Сообщений: 2 ] 
Вы не можете начинать темы
Вы не можете отвечать на сообщения
Вы не можете редактировать свои сообщения
Вы не можете удалять свои сообщения