Правила форума

  • В этом разделе создание новых тем Запрещено.
  • Для создания новых тем пользуйтесь Корневым разделом DVD и HD фильмы.
Начать новую темуОтветить на тему  [ Сообщений: 6 ] 
Торрент файл
Размер: 4.82 GB • Зарегистрирован: 4 года 6 месяцев • Статус: Проверено
Скачан: 25 раз • Желающих скачать: 0 • Поблагодарили: 12 раз
 Раздают: 0  |  0 KB/s  ]   Качают: 0  |  0 KB/s  ] 
 Полного источника не было 2 года 8 месяцев 
Сообщения
 Добавлено: 2012-05-09 11:17
Модератор
Аватара пользователя
Стаж: 5 лет 8 месяцев
Сообщений: 6281
Спасибок: 17335
Лайков: 1633


Удачи, Чак! / Good Luck Chuck


«Секс! Секс! Секс! И...Любовь?»


Изображение


Год выпуска: 2007
Страна: Изображение США, Изображение Канада
Жанр: фэнтези, драма, мелодрама, комедия
Продолжительность: 101 мин. / 01:41
Перевод: Профессиональный (полное дублирование) + Оригинальная звуковая дорожка
Субтитры: Нет


Режиссёр: Марк Хелфрич
Сценарист: Джош Столберг, Стив Гленн
Продюсер: Трэйси Е. Эдмондс, Брайан Фолк-Вейсс, Майк Карц
Оператор: Энтони Б. Ричмонд
Композитор: Аарон Зигман
В ролях: Джессика Альба, Дэйн Кук, Дэн Фоглер, Мишель Харрисон, Жоделль Ферланд, Майкл Тейген

Описание: Довольный жизнью молодой дантист обнаруживает удивительную вещь — любая девушка после встреч с ним буквально на следующий день находит себе идеального спутника жизни. Главного героя вполне устраивает такая ситуация — никаких, понимаешь, обязательств и шумных разрывов. Разумеется, ситуация в корне меняется, когда он находит свою половинку.

Рейтинг MPAA: Рейтинг R ( лицам до 17 лет обязательно присутствие взрослого)
Мировая премьера: 13 июня 2007
Премьера в России: 11 октября 2007
Бюджет: $25 000 000
Изображение


Качество: BDRip 720p
Формат: MKV
Видео кодек: AVC
Аудио кодек: AC3 (Dolby Digital)
Видео: 1280x696 (16:9), 23.976 fps, AVC, ~5790 kbps
Аудио #1: 48 kHz, AC3 Dolby Digital, 6 ch, ~384 kbps (DUB) [Профессиональный (полное дублирование)]
Аудио #2: 48 kHz, AC3 Dolby Digital, 6 ch, ~640 kbps (ENG) [Оригинальная звуковая дорожка]
Субтитры: Нет

Скриншоты
Изображение
Изображение
Изображение
Свернуть
MediaInfo
Общее
Уникальный идентификатор : 181592556290286171008215662987833634812 (0x889D7445628512E28483E5CCE305EFFC)
Полное имя : F:\Films\Good.Luck.Chuck.2007.BDRip.720p.rus.eng.mkv
Формат : Matroska
Версия формата : Version 2
Размер файла : 4,82 Гбайт
Продолжительность : 1 ч. 41 м.
Общий поток : 6815 Кбит/сек
Дата кодирования : UTC 2009-11-01 22:40:59
Программа кодирования : mkvmerge v2.9.7 ('Tenderness') built on Jul 1 2009 18:43:35
Библиотека кодирования : libebml v0.7.7 + libmatroska v0.8.1

Видео
Идентификатор : 1
Формат : AVC
Формат/Информация : Advanced Video Codec
Профиль формата : High@L4.1
Параметр CABAC формата : Да
Параметр ReFrames формата : 8 кадров
Идентификатор кодека : V_MPEG4/ISO/AVC
Продолжительность : 1 ч. 41 м.
Битрейт : 5790 Кбит/сек
Ширина : 1280 пикселей
Высота : 696 пикселей
Соотношение сторон : 16:9
Частота кадров : 23,976 кадра/сек
Цветовое пространство : YUV
Субдискретизация насыщенности : 4:2:0
Битовая глубина : 8 бит
Тип развёртки : Прогрессивная
Бит/(Пиксели*Кадры) : 0.271
Размер потока : 4,00 Гбайт (83%)
Библиотека кодирования : x264 core 78 r1310 ec46ace
Настройки программы : cabac=1 / ref=8 / deblock=1:-2:-1 / analyse=0x3:0x113 / me=umh / subme=10 / psy=1 / psy_rd=1.0:0.1 / mixed_ref=1 / me_range=32 / chroma_me=1 / trellis=2 / 8x8dct=1 / cqm=0 / deadzone=21,11 / chroma_qp_offset=-3 / threads=6 / nr=0 / decimate=1 / mbaff=0 / constrained_intra=0 / bframes=10 / b_pyramid=2 / b_adapt=2 / b_bias=0 / direct=1 / wpredb=1 / keyint=250 / keyint_min=25 / scenecut=40 / rc=2pass / mbtree=0 / bitrate=5790 / ratetol=1.0 / qcomp=0.60 / qpmin=10 / qpmax=51 / qpstep=4 / cplxblur=20.0 / qblur=0.5 / ip_ratio=1.40 / pb_ratio=1.30 / aq=1:1.00
Default : Да
Forced : Нет

Аудио #1
Идентификатор : 2
Формат : AC-3
Формат/Информация : Audio Coding 3
Расширение режима : CM (complete main)
Идентификатор кодека : A_AC3
Продолжительность : 1 ч. 41 м.
Вид битрейта : Постоянный
Битрейт : 384 Кбит/сек
Каналы : 6 каналов
Расположение каналов : Front: L C R, Side: L R, LFE
Частота : 48,0 КГц
Битовая глубина : 16 бит
Метод сжатия : С потерями
Размер потока : 278 Мбайт (6%)
Язык : Russian
Default : Да
Forced : Нет

Аудио #2
Идентификатор : 3
Формат : AC-3
Формат/Информация : Audio Coding 3
Расширение режима : CM (complete main)
Идентификатор кодека : A_AC3
Продолжительность : 1 ч. 41 м.
Вид битрейта : Постоянный
Битрейт : 640 Кбит/сек
Каналы : 6 каналов
Расположение каналов : Front: L C R, Side: L R, LFE
Частота : 48,0 КГц
Битовая глубина : 16 бит
Метод сжатия : С потерями
Размер потока : 464 Мбайт (9%)
Язык : English
Default : Нет
Forced : Нет
Свернуть
_________________
Изображение Изображение Изображение
Не в сети
Профиль  
 Добавлено: 2012-12-12 23:15 (спустя 7 месяцев)
Модератор релиз-группы
Аватара пользователя
Стаж: 6 лет 5 месяцев
Возраст: 25
Сообщений: 622
Спасибок: 10257
Лайков: 7
Встаю на раздачу.
_________________
Изображение
Не в сети
Профиль  
 Добавлено: 2012-12-16 16:54 (спустя 3 дня)
Модератор
Аватара пользователя
Стаж: 5 лет 8 месяцев
Сообщений: 6281
Спасибок: 17335
Лайков: 1633
Slovetskii
Давай :)
_________________
Изображение Изображение Изображение
Не в сети
Профиль  
 Добавлено: 2012-12-16 17:17 (спустя 22 минуты)
Модератор релиз-группы
Аватара пользователя
Стаж: 6 лет 5 месяцев
Возраст: 25
Сообщений: 622
Спасибок: 10257
Лайков: 7
bazanoff
Ужо раздал :)
_________________
Изображение
Не в сети
Профиль  
 Добавлено: 2013-02-02 14:36 (спустя 1 месяц 16 дней)
Модератор
Аватара пользователя
Стаж: 5 лет 8 месяцев
Сообщений: 6281
Спасибок: 17335
Лайков: 1633
Slovetskii
Спасибо :)
_________________
Изображение Изображение Изображение
Не в сети
Профиль  
 Добавлено: 2014-03-11 17:05 (спустя 1 год 1 месяц)
Аватара пользователя
Стаж: 8 лет 4 месяца
Возраст: 28
Сообщений: 125
Лайков: 1
Помогите скачать!!!
Не в сети
Профиль  
Начать новую темуОтветить на тему  [ Сообщений: 6 ] 
Вы не можете начинать темы
Вы не можете отвечать на сообщения
Вы не можете редактировать свои сообщения
Вы не можете удалять свои сообщения