Правила форума

  • В этом разделе создание новых тем Запрещено.
  • Для создания новых тем пользуйтесь Корневым разделом DVD и HD фильмы.
Начать новую темуОтветить на тему  [ 1 сообщение ] 
Торрент файл
Размер: 3.04 GB • Зарегистрирован: 4 года 2 месяца • Статус: Проверено
Скачан: 46 раз • Желающих скачать: 0 • Поблагодарили: 6 раз
 Раздают: 0  |  0 KB/s  ]   Качают: 0  |  0 KB/s  ] 
 Полного источника не было 3 года 2 месяца 
Сообщения
 Добавлено: 2012-09-27 20:01
Книголюб
Аватара пользователя
Стаж: 7 лет 2 месяца
Сообщений: 2823
Спасибок: 48823
Лайков: 73
Угнанный
Hijacked

Изображение


Год выпуска: 2012
Страна: США (NuttHouse Moving Pictures Company, Swift Street Productions)
Жанр: Боевик, Триллер
Продолжительность: 01:30:16
Перевод: Профессиональный (многоголосый закадровый) + Профессиональный (многоголосый закадровый)
Субтитры: Русские (вшитые)

Режиссёр: Brandon Nutt, Деклан О’Брайэн, Скуп Вассерштейн
В ролях: Доминик Пурселл, Винни Джонс, Джина Филипс, Рэнди Кутюр, Крэйг Фэйрбрасс, Тиффани Дюпон, Холт МакКэллани, Уилл Бейнбринк, Эшли Кусато, Джэй Хьюджули
Описание: Планы специального агента Росса по примерению с его экс-женой разрушаются, когда она поднимается на борт частного самолета, который является целью угонщиков. Росс следит за ними, и не имея времени для информирования своей команды и подвергая себя риску, он проникает на борт самолета для того, чтобы спасти любовь своей жизни…
Мировая премьера: 18 февраля 2012
Изображение 3.405 92

Качество: BDRip-720р
Формат: MKV
Видео кодек: H.264
Аудио кодек: AC3 (Dolby Digital)
Видео: 1280x720 23.976fps 3 800 Kbps 0.172Bits/Pixel
Аудио #1: 48000Hz 6ch 384 kbps
Аудио #2: 48000Hz 6ch 640 kbps
Субтитры: Русские (вшитые)
MediaInfo
General
Unique ID : 239076119643681104632313251065776821790 (0xB3DC62C28A9D11918036E3FEB603D61E)
Complete name : K:\Ugnannyj..mkv
Format : Matroska
Format version : Version 2
File size : 3.04 GiB
Duration : 1h 30mn
Overall bit rate : 4 820 Kbps
Movie name : IRONCLUB
Encoded date : UTC 2012-09-25 17:05:12
Writing application : mkvmerge v4.9.1 ('Ich will') сборка от Jul 11 2011 23:53:15
Writing library : libebml v1.2.1 + libmatroska v1.1.1

Video
ID : 1
Format : AVC
Format/Info : Advanced Video Codec
Format profile : High@L4.1
Format settings, CABAC : Yes
Format settings, ReFrames : 9 frames
Codec ID : V_MPEG4/ISO/AVC
Duration : 1h 30mn
Bit rate : 3 800 Kbps
Width : 1 280 pixels
Height : 720 pixels
Display aspect ratio : 16:9
Frame rate : 23.976 fps
Color space : YUV
Chroma subsampling : 4:2:0
Bit depth : 8 bits
Scan type : Progressive
Bits/(Pixel*Frame) : 0.172
Stream size : 2.33 GiB (77%)
Title : Hijacked.2012.720p.BluRay.AC3.x264-TayTO
Writing library : x264 core 125 r2208 d9d2288
Encoding settings : cabac=1 / ref=9 / deblock=1:-3:-3 / analyse=0x3:0x113 / me=tesa / subme=11 / psy=1 / psy_rd=1.00:0.00 / mixed_ref=1 / me_range=16 / chroma_me=1 / trellis=2 / 8x8dct=1 / cqm=0 / deadzone=21,11 / fast_pskip=0 / chroma_qp_offset=-2 / threads=12 / lookahead_threads=2 / sliced_threads=0 / nr=0 / decimate=0 / interlaced=0 / bluray_compat=0 / constrained_intra=0 / bframes=9 / b_pyramid=2 / b_adapt=2 / b_bias=0 / direct=3 / weightb=1 / open_gop=0 / weightp=2 / keyint=250 / keyint_min=23 / scenecut=40 / intra_refresh=0 / rc=2pass / mbtree=0 / bitrate=3800 / ratetol=1.0 / qcomp=0.60 / qpmin=0 / qpmax=69 / qpstep=4 / cplxblur=20.0 / qblur=0.5 / ip_ratio=1.40 / pb_ratio=1.30 / aq=1:0.70
Language : English
Default : Yes
Forced : Yes

Audio #1
ID : 2
Format : AC-3
Format/Info : Audio Coding 3
Mode extension : CM (complete main)
Codec ID : A_AC3
Duration : 1h 30mn
Bit rate mode : Constant
Bit rate : 384 Kbps
Channel(s) : 6 channels
Channel positions : Front: L C R, Side: L R, LFE
Sampling rate : 48.0 KHz
Bit depth : 16 bits
Compression mode : Lossy
Stream size : 248 MiB (8%)
Title : DD 5.1 @ 384 kbps - MVO, R5
Language : Russian
Default : Yes
Forced : Yes

Audio #2
ID : 3
Format : AC-3
Format/Info : Audio Coding 3
Mode extension : CM (complete main)
Codec ID : A_AC3
Duration : 1h 30mn
Bit rate mode : Constant
Bit rate : 640 Kbps
Channel(s) : 6 channels
Channel positions : Front: L C R, Side: L R, LFE
Sampling rate : 48.0 KHz
Bit depth : 16 bits
Compression mode : Lossy
Stream size : 413 MiB (13%)
Title : DD 5.1 @ 640 kbps
Language : English
Default : No
Forced : No

Text #1
ID : 4
Format : UTF-8
Codec ID : S_TEXT/UTF8
Codec ID/Info : UTF-8 Plain Text
Title : R5
Language : Russian
Default : No
Forced : No

Text #2
ID : 5
Format : UTF-8
Codec ID : S_TEXT/UTF8
Codec ID/Info : UTF-8 Plain Text
Language : English
Default : No
Forced : No

Menu
00:00:00.000 : en:00:00:00.000
00:03:44.975 : en:00:03:44.975
00:14:41.422 : en:00:14:41.422
00:22:35.271 : en:00:22:35.271
00:33:14.534 : en:00:33:14.534
00:37:50.518 : en:00:37:50.518
00:45:48.913 : en:00:45:48.913
00:52:12.296 : en:00:52:12.296
00:59:39.159 : en:00:59:39.159
01:09:22.492 : en:01:09:22.492
01:15:54.258 : en:01:15:54.258
01:26:04.785 : en:01:26:04.785
Свернуть


Скриншоты
Изображение
Изображение
Изображение
Изображение
Свернуть
Не в сети
Профиль  
Начать новую темуОтветить на тему  [ 1 сообщение ] 
Вы не можете начинать темы
Вы не можете отвечать на сообщения
Вы не можете редактировать свои сообщения
Вы не можете удалять свои сообщения