Правила форума

  • В этом разделе создание новых тем Запрещено.
  • Для создания новых тем пользуйтесь Корневым разделом DVD и HD фильмы.
Начать новую темуОтветить на тему  [ Сообщений: 5 ] 
Торрент файл
Размер: 7.93 GB • Зарегистрирован: 10 месяцев • Статус: Проверено
Скачан: 347 раз • Желающих скачать: 0 • Поблагодарили: 74 раза
 Раздают: 2  |  7 KB/s  ]   Качают: 0  |  0 KB/s  ] 
Сообщения
 Добавлено: 2016-01-07 21:03
RG-ELEKTRO
Аватара пользователя
Стаж: 2 года 3 месяца
Сообщений: 7928
Спасибок: 53739
Лайков: 3304
Ужастики / Goosebumps


Изображение


Год выпуска: 2015
Страна: США, Австралия (Columbia Pictures, LStar Capital, Original Film, Scholastic Entertainment, Sony Pictures Animation, Sony Pictures Entertainment (SPE), Village Roadshow Pictures)
Жанр: фэнтези, комедия, приключения
Продолжительность: 01:34:08
Перевод: Дублированный [iTunes]

Режиссёр: Роб Леттерман
В ролях: Дилан Миннетт, Одейя Раш, Эми Райан, Райан Ли, Джиллиан Белл, Джек Блэк, Кен Марино, Холстон Сейдж, Стивен Крюгер, Кит А. Болден
Описание: Зак переезжает с родителями в провинциальный городок, где знакомится с очаровательной соседкой Ханной. Он узнает, что ее отец — Роберт Стайн, знаменитый писатель, автор популярной серии триллеров для подростков «Ужастики», у которого есть мрачная тайна. Стайн — пленник собственных историй: монстры из его произведений вполне реальны, и он пишет свои книги для того, чтобы запереть чудовищ на их страницах, защищая своих читателей. По случайному стечению обстоятельств Зак выпускает монстров на волю…

Изображение Изображение
Качество: BDRip 1080p
Формат: MKV
Видео кодек: MPEG-4 AVC
Аудио кодек: AC3
Видео: MPEG-4 AVC, 9971 kb/s, 1920x808
Аудио #1: 48 kHz, AC3 Dolby Digital, 3/2 (L,C,R,l,r) + LFE ch, ~384 kbps [Дублированный]
Аудио #2: AC3, 6 ch, 640 Кбит/с (Английский)
Субтитры: Английские

"MI"
General
Unique ID : 203962729544159994806088911986527973036 (0x9971CAF75A55C79482DA5B3EBA5E2EAC)
Complete name : D:\фильмы\Ugastiki.2015.D.BDRip.1O8OP.mkv
Format : Matroska
Format version : Version 2
File size : 7.93 GiB
Duration : 1h 43mn
Overall bit rate : 11.0 Mbps
Encoded date : UTC 2016-01-12 01:34:24
Writing application : mkvmerge v8.3.0 ('Over the Horizon') 64bit
Writing library : libebml v1.3.1 + libmatroska v1.4.2

Video
ID : 2
Format : AVC
Format/Info : Advanced Video Codec
Format profile : High@L4.1
Format settings, CABAC : Yes
Format settings, ReFrames : 5 frames
Codec ID : V_MPEG4/ISO/AVC
Bit rate : 9 971 Kbps
Width : 1 920 pixels
Height : 808 pixels
Display aspect ratio : 2.40:1
Frame rate mode : Variable
Original frame rate : 23.976 fps
Color space : YUV
Chroma subsampling : 4:2:0
Bit depth : 8 bits
Scan type : Progressive
Bits/(Pixel*Frame) : 0.268
Writing library : x264 core 148 r2638 7599210
Encoding settings : cabac=1 / ref=5 / deblock=1:0:0 / analyse=0x3:0x113 / me=umh / subme=8 / psy=1 / psy_rd=1.00:0.00 / mixed_ref=1 / me_range=16 / chroma_me=1 / trellis=1 / 8x8dct=1 / cqm=0 / deadzone=21,11 / fast_pskip=0 / chroma_qp_offset=-2 / threads=24 / lookahead_threads=4 / sliced_threads=0 / nr=0 / decimate=1 / interlaced=0 / bluray_compat=0 / constrained_intra=0 / bframes=3 / b_pyramid=2 / b_adapt=2 / b_bias=0 / direct=3 / weightb=1 / open_gop=0 / weightp=2 / keyint=250 / keyint_min=23 / scenecut=40 / intra_refresh=0 / rc_lookahead=50 / rc=2pass / mbtree=1 / bitrate=9971 / ratetol=1.0 / qcomp=0.60 / qpmin=0 / qpmax=69 / qpstep=4 / cplxblur=20.0 / qblur=0.5 / ip_ratio=1.40 / aq=1:1.00
Language : English
Default : Yes
Forced : No

Audio #1
ID : 1
Format : AC-3
Format/Info : Audio Coding 3
Mode extension : CM (complete main)
Format settings, Endianness : Big
Codec ID : A_AC3
Duration : 1h 43mn
Bit rate mode : Constant
Bit rate : 384 Kbps
Channel(s) : 6 channels
Channel positions : Front: L C R, Side: L R, LFE
Sampling rate : 48.0 KHz
Bit depth : 16 bits
Compression mode : Lossy
Stream size : 284 MiB (3%)
Language : Russian
Default : Yes
Forced : No

Audio #2
ID : 3
Format : AC-3
Format/Info : Audio Coding 3
Mode extension : CM (complete main)
Format settings, Endianness : Big
Codec ID : A_AC3
Duration : 1h 43mn
Bit rate mode : Constant
Bit rate : 640 Kbps
Channel(s) : 6 channels
Channel positions : Front: L C R, Side: L R, LFE
Sampling rate : 48.0 KHz
Bit depth : 16 bits
Compression mode : Lossy
Stream size : 473 MiB (6%)
Language : English
Default : No
Forced : No

Text #1
ID : 4
Format : UTF-8
Codec ID : S_TEXT/UTF8
Codec ID/Info : UTF-8 Plain Text
Title : English regular
Default : No
Forced : No

Text #2
ID : 5
Format : UTF-8
Codec ID : S_TEXT/UTF8
Codec ID/Info : UTF-8 Plain Text
Title : English sdh
Default : No
Forced : No

Menu
00:00:00.000 : en:00:00:00.000
00:08:09.698 : en:00:08:09.698
00:11:45.955 : en:00:11:45.955
00:17:54.031 : en:00:17:54.031
00:21:52.853 : en:00:21:52.853
00:27:57.843 : en:00:27:57.843
00:32:40.292 : en:00:32:40.292
00:38:29.849 : en:00:38:29.849
00:44:37.008 : en:00:44:37.008
00:52:01.452 : en:00:52:01.452
00:58:12.948 : en:00:58:12.948
01:03:40.608 : en:01:03:40.608
01:09:56.317 : en:01:09:56.317
01:16:40.763 : en:01:16:40.763
01:22:55.220 : en:01:22:55.220
01:31:13.093 : en:01:31:13.093

Свернуть

Скриншоты
Изображение
Изображение
Изображение
Свернуть
Изображение


Изображение Изображение
_________________
Не ищите меня в "ВКонтакте", в "Одноклассниках" меня нет - я на трекерах сижу!
Не в сети
Профиль  
 Добавлено: 2016-01-12 12:32 (спустя 4 дня)
RG-ELEKTRO
Аватара пользователя
Стаж: 2 года 3 месяца
Сообщений: 7928
Спасибок: 53739
Лайков: 3304
Заменен на BDRip 1080p
_________________
Не ищите меня в "ВКонтакте", в "Одноклассниках" меня нет - я на трекерах сижу!
Не в сети
Профиль  
 Добавлено: 2016-01-19 13:09 (спустя 7 дней)
Аватара пользователя
Стаж: 9 лет 1 месяц
Сообщений: 2152
Спасибок: 778
Лайков: 14
Джек Блэк слился, хотя раньше были нормальные фильмы.
_________________
PSN
Изображение
Свернуть
Изображение
Не в сети
Профиль  
 Добавлено: 2016-01-26 19:55 (спустя 7 дней)
Аватара пользователя
Стаж: 8 лет 7 месяцев
Возраст: 37
Сообщений: 115
Спасибок: 191
Лайков: 2
Нормальный фильм, с ребенком с удовольствием посмотрели!
Не в сети
Профиль  
 Добавлено: 2016-01-30 22:29 (спустя 4 дня)
Аватара пользователя
Стаж: 8 лет 7 месяцев
Сообщений: 34
Смотрели в кино - нормальная одноразовая комедия, стоит глянуть.
Не в сети
Профиль  
Начать новую темуОтветить на тему  [ Сообщений: 5 ] 
Вы не можете начинать темы
Вы не можете отвечать на сообщения
Вы не можете редактировать свои сообщения
Вы не можете удалять свои сообщения