Правила форума

  • В этом разделе создание новых тем Запрещено.
  • Для создания новых тем пользуйтесь Корневым разделом DVD и HD фильмы.
Начать новую темуОтветить на тему  [ 1 сообщение ] 
Торрент файл
Размер: 2.95 GB • Зарегистрирован: 3 года 10 месяцев • Статус: Проверено
Скачан: 15 раз • Желающих скачать: 0 • Поблагодарили: 5 раз
 Раздают: 0  |  0 KB/s  ]   Качают: 0  |  0 KB/s  ] 
 Полного источника не было 3 года 2 месяца 
Сообщения
 Добавлено: 2013-02-06 08:13
Аватара пользователя
Стаж: 8 лет 4 месяца
Сообщений: 100
Спасибок: 1653
Укол зонтиком / Le Coup du Parapluie

Изображение


Год выпуска: 1980
Страна: Франция
Жанр: Комедия
Продолжительность: 01:34:15
Версия фильма: Unrated / Полная версия
Перевод: Профессиональный (многоголосый закадровый) + Профессиональный (дубляж) + Оригинальная звуковая дорожка
Субтитры: Русские

Режиссёр: Жерар Ури
В ролях: Пьер Ришар, Валери Мересс, Кристин Мурильо, Гордон Митчелл, Жерар Жюньо, Морис Риш, Доминик Лаванан, Аксель Аббади, Ясин Хан, Дидье Совегран
Описание: Пьер Ришар в роли актеришки, снимающегося в рекламе корма для собак, идет на прослушивание на роль убийцы, ошибается дверью и попадает к мафиози, которые дают ему контракт на убийство влиятельного соперника и "болгарский" зонтик с отравленной иглой. Профессиональный киллер, узнав об этом, идет по его следу, но, как и полагается в хорошей комедии, ему дико не везет, тогда как Ришар чудом, сам того не зная, выходит из всех переделок невредимым, хотя за ним охотятся и боевики предполагаемой жертвы. Замечательная, динамичная комедия пользовалась огромным успехом у зрителей.
Доп.информация: Картинка гораздо лучше DVD, но есть мелкие "шумы".
Рейтинг MPAA: Рейтинг R (Подростки до 17 лет допускаются на фильм только в сопровождении одного из родителей)
Изображение 7.639 (7215)
Изображение 6.30 (875)

Качество: WEB-DL 720p
Формат: MKV
Видео кодек: MPEG-4 AVC
Аудио кодек: AC3 (Dolby Digital)
Видео: MPEG-4 AVC, 4000 Кбит/с, 1206x720, 24 fps
Аудио #1: Russian: 48 kHz, AC3, 2/0 (L,R) ch, ~192.00 kbps avg [Профессиональный (многоголосый закадровый)]
Аудио #2: Russian: 48 kHz, AC3, 2/0 (L,R) ch, ~192.00 kbps avg [Профессиональный (дубляж)]
Аудио #3: French: 48 kHz, AAC, 2/0 (L,R) ch, ~160.00 kbps avg [Оригинальная звуковая дорожка]
Субтитры: Нет
Скриншоты
Изображение
Изображение
Изображение
Изображение
Изображение
Свернуть


Технические данные
General
Unique ID : 204992851680548628583236200587204461150 (0x9A382FE8A61C29C89D7F3B5EB94B825E)
Complete name : C:\GIA\Le Coup du parapluie 720p WEB-DL.mkv
Format : Matroska
Format version : Version 4 / Version 2
File size : 2.95 GiB
Duration : 1h 34mn
Overall bit rate : 4 485 Kbps
Movie name : Le Coup du parapluie (1980) - Release by xamster for HDCLUB
Encoded date : UTC 2010-02-22 21:41:31
Writing application : mkvmerge v5.9.0 ('On The Loose') built on Dec 9 2012 15:37:01
Writing library : libebml v1.3.0 + libmatroska v1.4.0

Video
ID : 1
Format : AVC
Format/Info : Advanced Video Codec
Format profile : High@L3.1
Format settings, CABAC : No
Format settings, ReFrames : 2 frames
Format settings, GOP : N=1
Codec ID : V_MPEG4/ISO/AVC
Duration : 1h 34mn
Width : 1 206 pixels
Height : 720 pixels
Display aspect ratio : 1.675
Frame rate mode : Constant
Frame rate : 24.000 fps
Color space : YUV
Chroma subsampling : 4:2:0
Bit depth : 8 bits
Scan type : Progressive
Title : Release by xamster for HDCLUB
Language : French
Default : Yes
Forced : No
Color primaries : BT.709
Transfer characteristics : BT.709
Matrix coefficients : BT.709

Audio #1
ID : 2
Format : AC-3
Format/Info : Audio Coding 3
Format profile : Dolby Digital
Mode extension : CM (complete main)
Format settings, Endianness : Big
Codec ID : A_AC3
Duration : 1h 34mn
Bit rate mode : Constant
Bit rate : 192 Kbps
Channel(s) : 2 channels
Channel positions : Front: L R
Sampling rate : 48.0 KHz
Bit depth : 16 bits
Compression mode : Lossy
Stream size : 129 MiB (4%)
Title : AC3 48kHz 2.0 192 kbps MVO NTV
Language : Russian
Default : Yes
Forced : No

Audio #2
ID : 3
Format : AC-3
Format/Info : Audio Coding 3
Format profile : Dolby Digital
Mode extension : CM (complete main)
Format settings, Endianness : Big
Codec ID : A_AC3
Duration : 1h 34mn
Bit rate mode : Constant
Bit rate : 192 Kbps
Channel(s) : 2 channels
Channel positions : Front: L R
Sampling rate : 48.0 KHz
Bit depth : 16 bits
Compression mode : Lossy
Stream size : 129 MiB (4%)
Title : AC3 48kHz 2.0 192 kbps Dub
Language : Russian
Default : No
Forced : No

Audio #3
ID : 4
Format : AAC
Format/Info : Advanced Audio Codec
Format profile : LC
Codec ID : A_AAC
Duration : 1h 34mn
Channel(s) : 2 channels
Channel positions : Front: L R
Sampling rate : 48.0 KHz
Compression mode : Lossy
Title : AAC 2.0 VBR Original
Language : French
Default : No
Forced : No

Text
ID : 5
Format : UTF-8
Codec ID : S_TEXT/UTF8
Codec ID/Info : UTF-8 Plain Text
Title : Russian
Language : Russian
Default : No
Forced : No

Menu
00:00:00.000 : en:Chapitre 1
00:03:58.000 : en:Chapitre 2
00:07:36.000 : en:Chapitre 3
00:11:40.000 : en:Chapitre 4
00:18:00.000 : en:Chapitre 5
00:21:32.000 : en:Chapitre 6
00:23:28.000 : en:Chapitre 7
00:25:22.000 : en:Chapitre 8
00:34:00.000 : en:Chapitre 9
00:37:56.000 : en:Chapitre 10
00:42:34.000 : en:Chapitre 11
00:44:51.000 : en:Chapitre 12
00:48:00.000 : en:Chapitre 13
00:54:47.000 : en:Chapitre 14
00:57:28.000 : en:Chapitre 15
01:01:26.000 : en:Chapitre 16
01:09:09.000 : en:Chapitre 17
01:16:49.000 : en:Chapitre 18
01:19:15.000 : en:Chapitre 19
01:26:14.000 : en:Chapitre 20
01:30:13.000 : en:Chapitre 21
01:32:06.000 : en:Chapitre 22
Свернуть

Знаете ли Вы, что...
Так как в советское время многие фильмы нещадно кромсались цензорами, то некоторый эпизоды русского дубляжа переведены многоголосым переводом.
Свернуть
_________________
Входи тихо, проси мало, говори кратко, уходи быстро...
Не в сети
Профиль  
Начать новую темуОтветить на тему  [ 1 сообщение ] 
Вы не можете начинать темы
Вы не можете отвечать на сообщения
Вы не можете редактировать свои сообщения
Вы не можете удалять свои сообщения