Правила форума

  • В этом разделе создание новых тем Запрещено.
  • Для создания новых тем пользуйтесь Корневым разделом DVD и HD фильмы.
Начать новую темуОтветить на тему  [ Сообщений: 2 ] 
Торрент файл
Размер: 10.89 GB • Зарегистрирован: 2 года • Статус: Проверено
Скачан: 95 раз • Желающих скачать: 0 • Поблагодарили: 26 раз
 Раздают: 0  |  0 KB/s  ]   Качают: 0  |  0 KB/s  ] 
 Полного источника не было 6 часов 
Сообщения
 Добавлено: 2014-11-15 21:01
Аватара пользователя
Стаж: 9 лет 1 месяц
Сообщений: 8108
Спасибок: 122341
Лайков: 1196
Укради мою жену / Life of Crime

«Right target. Wrong woman»

Изображение


Год выпуска: 2013
Страна: Изображение США
Жанр: криминал, драма, комедия
Продолжительность: 01:40:49
Субтитры: Английские
Перевод: Профессиональный (полное дублирование) [Лицензия]


Режиссер: Дэниэл Шехтер
Сценарий: Дэниэл Шехтер, Элмор Леонард
Продюсер: Ашок Амритрадж, Элизабет Дестро, Эллен Голдсмит-Вейн
Оператор: Эрик Алан Эдвардс
Композитор: The Newton Brothers

В ролях: Дженнифер Энистон, Мос Деф, Айла Фишер, Уилл Форте, Марк Бун Джуниор, Тим Роббинс, Джон Хоукс, Клеа Льюис, Чарли Тахэн, Кевин Корригэн


Описание: Когда двое непутевых преступников похитили жену коррумпированного застройщика, они совсем не ожидали, что супруг не захочет вызволять благоверную. Вместо того чтобы заплатить преступникам выкуп, он скрывается на Багамах с любовницей. В результате сюжет принимает неожиданный поворот…

Изображение Изображение

Раздача группы: Изображение

Качество: BDRip (1080p)
Формат: Matroska
Видео: MPEG-4 AVC, 12.2 Мбит/с, 1920x804, 23.976 кадр/с
Аудио №1: Русский (DTS, 48,0 КГц, 6 ch, 768 Кбит/c)
Аудио №2: Русский (AC3, 48,0 КГц, 6 ch, 640 Кбит/c)
Аудио №3: Английский (DTS, 48,0 КГц, 6 ch, 1510 Кбит/c)

MediaInfo
Общее
Уникальный идентификатор : 207450286505051925168244043945848102192 (0x9C1178CCCFCDF130B9BD0B3C7A9C5D30)
Полное имя : D:\Video\Life.of.Crime.2014.BDRip.1080p.mkv
Формат : Matroska
Версия формата : Version 4 / Version 2
Размер файла : 10,9 Гбайт
Продолжительность : 1 ч. 40 м.
Общий поток : 15,5 Мбит/сек
Дата кодирования : UTC 2014-11-03 02:18:42
Программа кодирования : mkvmerge v6.3.0 ('You can't stop me!') built on Jun 28 2013 20:09:41
Библиотека кодирования : libebml v1.3.0 + libmatroska v1.4.0

Видео
Идентификатор : 1
Формат : AVC
Формат/Информация : Advanced Video Codec
Профиль формата : High@L4.1
Параметр CABAC формата : Да
Параметр ReFrames формата : 5 кадров
Идентификатор кодека : V_MPEG4/ISO/AVC
Продолжительность : 1 ч. 40 м.
Битрейт : 12,2 Мбит/сек
Ширина : 1920 пикселей
Высота : 804 пикселя
Соотношение сторон : 2,40:1
Частота кадров : 23,976 кадра/сек
Цветовое пространство : YUV
Субдискретизация насыщенности : 4:2:0
Битовая глубина : 8 бит
Тип развёртки : Прогрессивная
Бит/(Пиксели*Кадры) : 0.331
Размер потока : 8,62 Гбайт (79%)
Заголовок : Life.of.Crime.2014.D.BDRip.1080p
Библиотека кодирования : x264 core 142 r2479kMod dd79a61
Настройки программы : cabac=1 / ref=5 / deblock=1:-3:-3 / analyse=0x3:0x133 / me=umh / subme=10 / psy=1 / fade_compensate=0.00 / psy_rd=1.00:0.00 / mixed_ref=1 / me_range=24 / chroma_me=1 / trellis=2 / 8x8dct=1 / cqm=0 / deadzone=21,11 / fast_pskip=0 / chroma_qp_offset=-2 / threads=18 / lookahead_threads=4 / sliced_threads=0 / nr=0 / decimate=0 / interlaced=0 / bluray_compat=0 / constrained_intra=0 / fgo=0 / bframes=10 / b_pyramid=2 / b_adapt=2 / b_bias=0 / direct=3 / weightb=1 / open_gop=0 / weightp=2 / keyint=250 / keyint_min=23 / scenecut=40 / intra_refresh=0 / rc=crf / mbtree=0 / crf=16.3000 / qcomp=0.75 / qpmin=0 / qpmax=69 / qpstep=4 / ip_ratio=1.30 / pb_ratio=1.20 / aq=1:0.80
Язык : English
Default : Нет
Forced : Нет

Аудио #1
Идентификатор : 2
Формат : DTS
Формат/Информация : Digital Theater Systems
Идентификатор кодека : A_DTS
Продолжительность : 1 ч. 40 м.
Вид битрейта : Постоянный
Битрейт : 755 Кбит/сек
Каналы : 6 каналов
Расположение каналов : Front: L C R, Side: L R, LFE
Частота : 48,0 КГц
Битовая глубина : 24 бит
Метод сжатия : С потерями
Размер потока : 544 Мбайт (5%)
Заголовок : Лицензия
Язык : Russian
Default : Нет
Forced : Нет

Аудио #2
Идентификатор : 3
Формат : AC-3
Формат/Информация : Audio Coding 3
Расширение режима : CM (complete main)
Идентификатор кодека : A_AC3
Продолжительность : 1 ч. 40 м.
Вид битрейта : Постоянный
Битрейт : 640 Кбит/сек
Каналы : 6 каналов
Расположение каналов : Front: L C R, Side: L R, LFE
Частота : 48,0 КГц
Битовая глубина : 16 бит
Метод сжатия : С потерями
Размер потока : 461 Мбайт (4%)
Заголовок : Лицензия
Язык : Russian
Default : Нет
Forced : Нет

Аудио #3
Идентификатор : 4
Формат : DTS
Формат/Информация : Digital Theater Systems
Идентификатор кодека : A_DTS
Продолжительность : 1 ч. 40 м.
Вид битрейта : Постоянный
Битрейт : 1510 Кбит/сек
Каналы : 6 каналов
Расположение каналов : Front: L C R, Side: L R, LFE
Частота : 48,0 КГц
Битовая глубина : 24 бит
Метод сжатия : С потерями
Размер потока : 1,06 Гбайт (10%)
Заголовок : Original
Язык : English
Default : Нет
Forced : Нет

Текст
Идентификатор : 5
Формат : UTF-8
Идентификатор кодека : S_TEXT/UTF8
Идентификатор кодека/Информация : UTF-8 Plain Text
Язык : English
Default : Нет
Forced : Нет

Меню
00:00:00.000 : en:00:00:00.000
00:06:22.465 : en:00:06:22.465
00:12:52.438 : en:00:12:52.438
00:19:13.110 : en:00:19:13.110
00:26:24.750 : en:00:26:24.750
00:32:54.347 : en:00:32:54.347
00:38:40.818 : en:00:38:40.818
00:44:30.418 : en:00:44:30.418
00:52:46.455 : en:00:52:46.455
00:59:22.476 : en:00:59:22.476
01:03:57.500 : en:01:03:57.500
01:12:24.674 : en:01:12:24.674
01:17:48.122 : en:01:17:48.122
01:25:22.659 : en:01:25:22.659
01:30:31.009 : en:01:30:31.009
01:34:57.567 : en:01:34:57.567
Свернуть
Знаете ли вы, что...
На съемках Энистон получила сильный удар в челюсть. Инцидент произошел во время съемок сцены драки с участием актера Джона Хоукса и рэпера Данте Смита, более известного под псевдонимом Мос Деф. По сюжету Энистон пытается разнять дерущихся мужчин. Однако в процессе съемок один из актеров случайно ударил кинозвезду в челюсть. Удар оказался настолько сильным, что Энистон просто рухнула на пол.

В 1986 году за этот проект бралась студия 20th Century Fox. Дайан Китон должна была сыграть в нем роль Микки Доусон. Но тогда проект был заморожен, так как его сочли слишком похожим на фильм «Безжалостные люди» (1986).

В сцене на Багамах используются мячи для гольфа «Noodle Long and Soft». Такие мячи появились лишь 25 лет спустя, и в то время, когда разворачиваются события фильма, их быть не могло.

Свернуть
Скриншоты
Изображение
Изображение
Изображение
Изображение]
Свернуть
Не в сети
Профиль  
 Добавлено: 2014-11-16 13:13 (спустя 16 часов)
Top-seeder
Аватара пользователя
Стаж: 9 лет 1 месяц
Возраст: 27
Сообщений: 1170
Спасибок: 1626
Лайков: 15
О Боги! Время не жалеет никого! :'(
Не в сети
Профиль  
Начать новую темуОтветить на тему  [ Сообщений: 2 ] 
Вы не можете начинать темы
Вы не можете отвечать на сообщения
Вы не можете редактировать свои сообщения
Вы не можете удалять свои сообщения