Правила форума

  • В этом разделе создание новых тем Запрещено.
  • Для создания новых тем пользуйтесь Корневым разделом DVD и HD фильмы.
Начать новую темуОтветить на тему  [ Сообщений: 4 ] 
Торрент файл
Размер: 6.13 GB • Зарегистрирован: 4 года 2 месяца • Статус: T Временный релиз
Скачан: 47 раз • Желающих скачать: 0 • Поблагодарили: 2 раза
 Раздают: 0  |  0 KB/s  ]   Качают: 0  |  0 KB/s  ] 
 Полного источника не было 11 месяцев 
Сообщения
 Добавлено: 2012-09-16 12:29
Аватара пользователя
Стаж: 8 лет 11 месяцев
Сообщений: 19
Спасибок: 557
Уличный боец / Urban Fighter/Street gangs

Изображение


Год выпуска: 2012
Страна: Германия (Generation X Group Film- & Medienproduktion)
Жанр: боевые искусства
Продолжительность: 01:42:23
Перевод: Любительский (одноголосый закадровый) + Оригинальная звуковая дорожка

Режиссёр: Майк Мёллер / Mike Möller
В ролях: Mike Möller (Майки), Volkram Zschiesche (Кровельщик), Oliver Juhrs (Рене), Mathis Landwehr (Матис), Alister Mazzotti (президент компании), Nico Sentner (начальник полиции), Najely Chumana (Миа), Bernhard Hafner (Бен)
Описание: "Упыри" - самая ужасная и жестокая банда в городе беззакония, в котором банды правят улицами. Жестокий и кровожадный убийца, Кровельщик - их вожак. Город - его территория. Майки и его друзья не являются членами ни одной из банд. Майки живёт на окраине, он дерзок и постоянно попадает в передряги. Его названный брат Матис и друзья пытаются, как могут, избежать проблем. Месть становится мотивом для Майки, когда его брата убивают. Чтобы отомстить за смерть Матиса, Майки должен сразиться с теми, кто несёт ответственность за его безвременную кончину. С этой целью Майки тренирует тело и разум. Он готовится участвовать в турнире, который организуют крупнейшие банды. "Упыри" и Кровельщик становятся для него самым заклятым врагом. Врагом, которого можно одолеть только с помощью своих друзей.
Рейтинг MPAA: Рейтинг NC-17 (Лица, не достигшие 17 лет, на фильм не допускаются)
Изображение
Изображение
Качество: BDrip
Формат: MKV
Видео кодек: MPEG4/AVC
Аудио кодек: AC3 (Dolby Digital)
Видео: MPEG-4 AVC, 7377кбит/c, 1920x824
Аудио #1: ac3 384кбит/с 2ch Russian [Любительский (одноголосый закадровый)(А.Кедров (antoniolagrande))]
Аудио #2: ac3 6ch 640кбит/с English [Оригинальная звуковая дорожка]
Скриншоты
Изображение
Изображение
Изображение
Изображение
Изображение
Изображение
Свернуть

MediaInfo
Urban.Fighter.2012.1080p.MKV.x264.mkv
General
Unique ID : 193382711637167163664608754297304390770 (0x917C27CF4C8D72A09FB691EAD8921C72)
Complete name : Urban.Fighter.2012.1080p.MKV.x264.mkv
Format : Matroska
Format version : Version 2
File size : 6.13 GiB
Duration : 1h 42mn
Overall bit rate : 8 572 Kbps
Encoded date : UTC 2012-09-16 08:21:35
Writing application : mkvmerge v5.8.0 ('No Sleep / Pillow') built on Sep 2 2012 15:37:04
Writing library : libebml v1.2.3 + libmatroska v1.3.0
Video #1
ID : 1
Format : AVC
Format/Info : Advanced Video Codec
Format profile : High@L4.1
Format settings, CABAC : Yes
Format settings, ReFrames : 5 frames
Muxing mode : Header stripping
Codec ID : V_MPEG4/ISO/AVC
Duration : 1h 42mn
Bit rate : 7 377 Kbps
Width : 1 920 pixels
Height : 824 pixels
Display aspect ratio : 2.35:1
Frame rate mode : Constant
Frame rate : 25.000 fps
Color space : YUV
Chroma subsampling : 4:2:0
Bit depth : 8 bits
Scan type : Progressive
Bits/(Pixel*Frame) : 0.187
Stream size : 5.28 GiB (86%)
Title : epd-streetgangs.1080p
Writing library : x264 core 125 r2200 999b753
Encoding settings : cabac=1 / ref=5 / deblock=1:-1:-1 / analyse=0x3:0x113 / me=umh / subme=7 / psy=1 / psy_rd=1.00:0.15 / mixed_ref=1 / me_range=16 / chroma_me=1 / trellis=1 / 8x8dct=1 / cqm=0 / deadzone=21,11 / fast_pskip=0 / chroma_qp_offset=-3 / threads=18 / lookahead_threads=3 / sliced_threads=0 / nr=0 / decimate=1 / interlaced=0 / bluray_compat=0 / constrained_intra=0 / bframes=3 / b_pyramid=2 / b_adapt=1 / b_bias=0 / direct=1 / weightb=1 / open_gop=0 / weightp=2 / keyint=250 / keyint_min=25 / scenecut=40 / intra_refresh=0 / rc_lookahead=40 / rc=crf / mbtree=1 / crf=20.0 / qcomp=0.60 / qpmin=0 / qpmax=69 / qpstep=4 / ip_ratio=1.40 / aq=1:1.00
Default : Yes
Forced : No
Audio #2
ID : 2
Format : AC-3
Format/Info : Audio Coding 3
Mode extension : CM (complete main)
Format settings, Endianness : Big
Muxing mode : Header stripping
Codec ID : A_AC3
Duration : 1h 42mn
Bit rate mode : Constant
Bit rate : 384 Kbps
Channel(s) : 2 channels
Channel positions : Front: L R
Sampling rate : 48.0 KHz
Bit depth : 16 bits
Compression mode : Lossy
Stream size : 281 MiB (4%)
Title : VO А.Кедров
Language : Russian
Default : Yes
Forced : No
Audio #3
ID : 3
Format : AC-3
Format/Info : Audio Coding 3
Mode extension : CM (complete main)
Format settings, Endianness : Big
Muxing mode : Header stripping
Codec ID : A_AC3
Duration : 1h 42mn
Bit rate mode : Constant
Bit rate : 640 Kbps
Channel(s) : 6 channels
Channel positions : Front: L C R, Side: L R, LFE
Sampling rate : 48.0 KHz
Bit depth : 16 bits
Compression mode : Lossy
Stream size : 469 MiB (7%)
Title : AC3
Language : English
Default : No
Forced : No
Свернуть


Последний раз редактировалось temochkin 2012-09-16 18:59, всего редактировалось 1 раз.
Не в сети
Профиль  
 Добавлено: 2012-09-16 15:58 (спустя 3 часа)
Стаж: 5 лет 3 месяца
Сообщений: 150
Лайков: 2
Мдаааа...Чушь полная!
Не в сети
Профиль  
 Добавлено: 2012-09-16 16:39 (спустя 41 минута)
Руководитель релиз-группы
Аватара пользователя
Стаж: 7 лет 5 месяцев
Возраст: 31
Сообщений: 3406
Спасибок: 46729
Лайков: 5

temochkin:

[Профессиональный (одноголосый закадровый)(А.Кедров (antoniolagrande))]
Любительский (одноголосый закадровый)
Не в сети
Профиль  
 Добавлено: 2012-09-16 19:02 (спустя 2 часа 22 минуты)
Аватара пользователя
Стаж: 8 лет 11 месяцев
Сообщений: 19
Спасибок: 557

09лёшик09:

Мдаааа...Чушь полная!

Не шедевр, но бои не плохие.

askboy:

temochkin:

[Профессиональный (одноголосый закадровый)(А.Кедров (antoniolagrande))]
Любительский (одноголосый закадровый)
Исправил
Не в сети
Профиль  
Начать новую темуОтветить на тему  [ Сообщений: 4 ] 
Вы не можете начинать темы
Вы не можете отвечать на сообщения
Вы не можете редактировать свои сообщения
Вы не можете удалять свои сообщения