Правила форума

  • В этом разделе создание новых тем Запрещено.
  • Для создания новых тем пользуйтесь Корневым разделом DVD и HD фильмы.
Начать новую темуОтветить на тему  [ Сообщений: 7 ] 
Торрент файл
Размер: 3.54 GB • Зарегистрирован: 1 год 2 месяца • Статус: T Временный релиз
Скачан: 430 раз • Желающих скачать: 0 • Поблагодарили: 67 раз
 Раздают: 5  |  63 KB/s  ]   Качают: 0  |  0 KB/s  ] 
Сообщения
 Добавлено: 2015-09-10 22:27
DVD Release Group
Аватара пользователя
Стаж: 7 лет 1 месяц
Сообщений: 3552
Спасибок: 247166
Лайков: 1018
Ультраамериканцы

American Ultra


Изображение


Год выпуска: 2015
Страна: США
Жанр: Боевик, комедия
Продолжительность: 01:27:48
Перевод: Профессиональный (полное дублирование)
Режиссер: Нима Нуризаде
В ролях: Джесси Айзенберг, Кристен Стюарт, Тофер Грейс, Конни Бриттон, Уолтон Гоггинс, Джон Легуизамо, Билл Пуллман, Тони Хейл, Стюарт Грир, Майкл Пападжон
Описание: А вдруг ты тоже спецагент, обладающий уникальной боевой подготовкой и сверхинтеллектом? Но просто ты забыл об этом… Как Майк Хоуэлл, лоботряс из супермаркета, который безмятежно читает комиксы и курит дурь пока славное прошлое не настигает его. И обдолбанный агент N1 становится мишенью N1.
ИзображениеИзображение
Качество: WEB-DL 1080p
Формат: MKV
Видео кодек: H.264
Аудио кодек: AC3
Видео: 1920x1038 23.98fps 4819kbps
Аудио: 48kHz 6ch 384kbps
"MediaInfo"
Формат : Matroska
Версия формата : Version 4 / Version 2
Размер файла : 3,54 Гбайт
Продолжительность : 1 ч. 35 м.
Общий поток : 5308 Кбит/сек
Дата кодирования : UTC 2015-09-10 18:15:15
Программа кодирования : mkvmerge v6.9.1 ('Blue Panther') 64bit built on Apr 18 2014 18:23:38
Библиотека кодирования : libebml v1.3.0 + libmatroska v1.4.1

Видео
Идентификатор : 1
Формат : AVC
Формат/Информация : Advanced Video Codec
Профиль формата : High@L4.0
Параметр CABAC формата : Да
Параметр ReFrames формата : 4 кадра
Идентификатор кодека : V_MPEG4/ISO/AVC
Продолжительность : 1 ч. 35 м.
Битрейт : 4819 Кбит/сек
Ширина : 1920 пикселей
Высота : 1038 пикселей
Соотношение сторон : 1,85:1
Режим частоты кадров : Постоянный
Частота кадров : 24,000 кадра/сек
Цветовое пространство : YUV
Субдискретизация насыщенности : 4:2:0
Битовая глубина : 8 бит
Тип развёртки : Прогрессивная
Бит/(Пиксели*Кадры) : 0.101
Размер потока : 3,22 Гбайт (91%)
Язык : English
Default : Да
Forced : Нет
Основные цвета : BT.709
Характеристики трансфера : BT.709
Коэффициенты матрицы : BT.709

Аудио
Идентификатор : 2
Формат : AC-3
Формат/Информация : Audio Coding 3
Расширение режима : CM (complete main)
Параметр Endianness формата : Big
Идентификатор кодека : A_AC3
Продолжительность : 1 ч. 35 м.
Вид битрейта : Постоянный
Битрейт : 384 Кбит/сек
Каналы : 6 каналов
Расположение каналов : Front: L C R, Side: L R, LFE
Частота : 48,0 КГц
Битовая глубина : 16 бит
Метод сжатия : С потерями
Размер потока : 262 Мбайт (7%)
Язык : Russian
Default : Да
Forced : Нет

Меню
00:00:00.000 : en:Глава 1
00:02:23.000 : en:Глава 2
00:07:23.000 : en:Глава 3
00:14:21.000 : en:Глава 4
00:18:51.000 : en:Глава 5
00:23:32.000 : en:Глава 6
00:30:48.000 : en:Глава 7
00:36:38.000 : en:Глава 8
00:42:28.000 : en:Глава 9
00:47:44.000 : en:Глава 10
00:55:10.000 : en:Глава 11
01:00:08.000 : en:Глава 12
01:06:24.000 : en:Глава 13
01:11:34.000 : en:Глава 14
01:18:34.000 : en:Глава 15
01:25:41.000 : en:Глава 16
Свернуть

"Скриншоты"
Изображение
Изображение
Изображение
Свернуть
Не в сети
Профиль  
 Добавлено: 2015-09-11 12:40 (спустя 14 часов)
Аватара пользователя
Стаж: 7 лет 8 месяцев
Сообщений: 933
Лайков: 50
Кристен Стюарт, за что???
Не в сети
Профиль  
 Добавлено: 2015-09-11 19:35 (спустя 6 часов)
Стаж: 5 лет 11 месяцев
Сообщений: 6
:-ok-:
Не в сети
Профиль  
 Добавлено: 2015-09-12 18:57 (спустя 23 часа)
Кинокомментатор
Аватара пользователя
Стаж: 9 лет 1 месяц
Сообщений: 1332
Лайков: 54
По мне так фильм зачётный просто!) Джесси Айзенберг всё больше и больше радует, с каждой ролью!
Кристен Стюарт просто мега сосочка))) и играет тоже гут!
В общем комедия с боевиком удались! 8/10
Не в сети
Профиль  
 Добавлено: 2015-09-12 19:05 (спустя 7 минут)
Аватара пользователя
Стаж: 8 лет 11 месяцев
Сообщений: 515
Спасибок: 39
Лайков: 49
Подумаешь рубль, вот если бы цент!
Не в сети
Профиль  
 Добавлено: 2015-09-28 21:41 (спустя 16 дней)
Аватара пользователя
Стаж: 8 лет 7 месяцев
Возраст: 44
Сообщений: 289
Спасибок: 149
Лайков: 4
Фуфельное кинцо.
В последних боевиках сцены драк уже не снимают, их тупо монтируют. Вот стоит патлатый укурок с телосложением ботаника, следующий кадр: его рука у горла мужика, который раза в 2 его здоровее и мужик падает, либо без сознания, либо мертвый. Ни замаха, ни отмаха. В скором времени Голливуд будет тырить шаблоны боевок у индийского кино.
Чего стоит сказочный момент сковородка+пуля из пистолета=ранение в грудь навылет=труп.
Попробуй проткнуть чайной ложкой тушку размороженной курицы!
Короче, фильмец для школьников и иже с ними.
Не в сети
Профиль  
 Добавлено: 2015-09-30 23:49 (спустя 2 дня 2 часа)
Аватара пользователя
Стаж: 9 лет 1 месяц
Сообщений: 2152
Спасибок: 778
Лайков: 14
Так себе, не стоит смотреть.
_________________
PSN
Изображение
Свернуть
Изображение
Не в сети
Профиль  
Начать новую темуОтветить на тему  [ Сообщений: 7 ] 
Вы не можете начинать темы
Вы не можете отвечать на сообщения
Вы не можете редактировать свои сообщения
Вы не можете удалять свои сообщения