Правила форума

  • В этом разделе создание новых тем Запрещено.
  • Для создания новых тем пользуйтесь Корневым разделом DVD и HD фильмы.
Начать новую темуОтветить на тему  [ 1 сообщение ] 
Торрент файл
Размер: 8.68 GB • Зарегистрирован: 5 лет 8 месяцев • Статус: Проверено
Скачан: 8 раз • Желающих скачать: 0 • Поблагодарили: 4 раза
 Раздают: 0  |  0 KB/s  ]   Качают: 0  |  0 KB/s  ] 
 Полного источника не было 3 года 2 месяца 
Сообщения
 Добавлено: 2011-03-31 18:53
Модератор
Аватара пользователя
Стаж: 8 лет 1 месяц
Сообщений: 1991
Спасибок: 129867
Лайков: 20
Умереть молодым / Dying Young


«She's giving him something nobody else could. A reason to live.»



Изображение

Год выпуска: 1991
Страна: Изображение США
Жанр: драма, мелодрама

Перевод: Оригинальный, Профессиональный (многоголосый, закадровый)

Режиссер: Джоэл Шумахер
Сценарий: Марти Леймбах, Ричард Фриденберг
Продюсер: Сэлли Филд, Маури Сид Гэйтон, Кевин МакКормик
Оператор: Хуан Руис Анчия
Композитор: Джеймс Ньютон Ховард

В ролях:
Джулия Робертс (Hilary O'Neil,), Кэмпбелл Скотт (Victor Geddes), Винсент Д’Онофрио (Gordon), Коллин Дьюхёрст (Estelle Whittier), Дэвид Селби (Richard Geddes), Эллен Бёрстин (Mrs. O'Neil), Дион Андерсон (Cappy), Джордж Мартин (Malachi), Эдриенн-Джой Джонсон (Shauna), Дэниэл Бир (Danny), Бехруз Афрахан (Moamar Gadaffi), Майкл Хэлтон (Gordon's Friend)

Описание: Хилари О`Нил бросает ее приятель, и она решает кардинально изменить свою жизнь. Хилари устраивается сиделкой к гениальному, но умирающему от лейкемии человеку.
Постепенно взаимная симпатия перерастает в пламенную страсть, но эта любовь обречена, ибо неизлечимая болезнь набирает силу...


Изображение: 7.943 (2 089)
Изображение: 5.40 (5 736)

MPAA: Изображение - Лицам до 17 лет обязательно присутствие взрослого

Доп. Информация

Сборы в США: $33 669 178
Сборы в мире: $82 264 675
Мировая премьера: 21 июня 1991
Изображение Релиз на DVD: 25 декабря 2008, «Двадцатый Век Фокс СНГ»

Свернуть

Качество: HDTVRip 1080i
Формат: BDAV
Видео: AVC; 1920x1080 (16:9); 10329 Kbps; 25 fps; Interlaced (Top Field First); 0,199 bpp
Аудио №1: Russian / / ; AC3; 448 Kbps; CBR; 6 ch
Аудио №2: English / / ; AC3; 384 Kbps; CBR; 2 ch
Субтитры №1: Russian / /
Субтитры №2: English / /

Релиз группы: Изображение

BDInfo

General
ID : 1
Complete name : D:\HD KINO\Dying.Young.1991.HDTV.1080i.CANAL+HD.[satnews]\1991.Dying.Young.HDTV.1080i.CANAL+HD.[satnews]\BDMV\STREAM\00000.m2ts
Format : BDAV
Format/Info : Blu-ray Video
File size : 8.68 GiB
Duration : 1h 46mn
Overall bit rate : 11.6 Mbps
Maximum Overall bit rate : 35.5 Mbps


Video
ID : 4113 (0x1011)
Menu ID : 1 (0x1)
Format : AVC
Format/Info : Advanced Video Codec
Format profile : Main@L4.0
Format settings, CABAC : Yes
Format settings, ReFrames : 4 frames
Format_Settings_GOP : M=1, N=30
Duration : 1h 46mn
Bit rate mode : Variable
Bit rate : 10.3 Mbps
Maximum bit rate : 40.0 Mbps
Width : 1 920 pixels
Height : 1 080 pixels
Display aspect ratio : 16:9
Frame rate : 25.000 fps
Resolution : 8 bits
Colorimetry : 4:2:0
Scan type : Interlaced
Scan order : Top Field First
Bits/(Pixel*Frame) : 0.199
Stream size : 7.70 GiB (89%)
Color primaries : BT.709-5, BT.1361, IEC 61966-2-4, SMPTE RP177
Transfer characteristics : BT.709-5, BT.1361
Matrix coefficients : BT.709-5, BT.1361, IEC 61966-2-4 709, SMPTE RP177


Audio #1
ID : 4352 (0x1100)
Menu ID : 1 (0x1)
Format : AC-3
Format/Info : Audio Coding 3
Format_Settings_ModeExtension : CM (complete main)
Duration : 1h 46mn
Bit rate mode : Constant
Bit rate : 448 Kbps
Channel(s) : 6 channels
Channel positions : Front: L C R, Side: L R, LFE
Sampling rate : 48.0 KHz
Video delay : 29ms
Stream size : 342 MiB (4%)
Language : Russian / /


Audio #2
ID : 4353 (0x1101)
Menu ID : 1 (0x1)
Format : AC-3
Format/Info : Audio Coding 3
Format_Settings_ModeExtension : CM (complete main)
Duration : 1h 46mn
Bit rate mode : Constant
Bit rate : 384 Kbps
Channel(s) : 2 channels
Channel positions : Front: L R
Sampling rate : 48.0 KHz
Video delay : 29ms
Stream size : 293 MiB (3%)
Language : English / /


Text #1
ID : 4608 (0x1200)
Menu ID : 1 (0x1)
Format : PGS
Language : Russian / /


Text #2
ID : 4609 (0x1201)
Menu ID : 1 (0x1)
Format : PGS
Duration : 1h 46mn
Video delay : 4s 909ms
Language : English / /
Свернуть
Скриншоты

Изображение
Изображение
Изображение
Изображение
Свернуть
_________________
Себе ты можешь не качать, но раздавать другим обязан!
Не в сети
Профиль  
Начать новую темуОтветить на тему  [ 1 сообщение ] 
Вы не можете начинать темы
Вы не можете отвечать на сообщения
Вы не можете редактировать свои сообщения
Вы не можете удалять свои сообщения