Правила форума

  • В этом разделе создание новых тем Запрещено.
  • Для создания новых тем пользуйтесь Корневым разделом DVD и HD фильмы.
Начать новую темуОтветить на тему  [ Сообщений: 2 ] 
Торрент файл
Размер: 10.45 GB • Зарегистрирован: 4 года 1 месяц • Статус: Проверено
Скачан: 27 раз • Желающих скачать: 0 • Поблагодарили: 7 раз
 Раздают: 0  |  0 KB/s  ]   Качают: 0  |  0 KB/s  ] 
 Полного источника не было 3 года 2 месяца 
Сообщения
 Добавлено: 2012-10-12 09:59
Top-releaser
Аватара пользователя
Стаж: 6 лет 7 месяцев
Сообщений: 2078
Спасибок: 3230
Лайков: 9
Изображение

Универсальный солдат 3: Возрождение
Universal Soldier: Regeneration


Год выпуска: 2009
Страна: США
Слоган: «They come back again, and now - to show their real power»
Жанр: фантастика, боевик, триллер, приключения
Продолжительность: 01:36:57
Перевод: Профессиональный (многоголосый, закадровый)
Режиссер: Джон Хайамс
Сценарий: Виктор Островский, Ричард Ротстайн, Кристофер Лейтч, Дин Девлин
Продюсер: Крэйг Баумгартен, Моше Дайамант, Марк Дэймон, Джеймс Портолезе, Израэль Рингел
Оператор: Питер Хайамс
Композитор: Крис Хилл, Майкл Красснер
В ролях: Жан-Клод Ван Дамм, Дольф Лундгрен, Андрей Арловский, Майк Пайл, Кори Джонсон, Гарри Купер, Эмили Джойс, Захари Бахаров, Аки Авни, Керри Шейл, Yonko Dimitrov, Виолета Марковска
Бюджет: $14 000 000
Мировая премьера: 1 октября 2009
Релиз на DVD: 12 августа 2010, «Columbia/Sony»
Описание: Чеченский террорист по фамилии Топофф захватывает Чернобыльскую АЭС и угрожает взорвать ее. На его стороне - бывший сотрудник программы «Универсальный солдат», поставивший на службу террористу грозное оружие - одного из своих подопечных. Ситуация осложняется тем, что в заложниках оказываются дети видного государственного деятеля. Попытки освободить опасный объект превращаются в кровавую бойню. И тогда в схватку с модернизированным унисолом вступает Люк Девро. Однако его ждёт встреча не только со сбродом Топоффа и унисолом нового поколения, но и со своим старым знакомым - сержантом Эндрю Скоттом.

Изображение User Rating: 4.302 (3 173)
Изображение User Rating: 5.30 (14 112)
MPAA: R - Лицам до 17 лет обязательно присутствие взрослого
Качество: BDRip, 1080p
Формат: Matroska
Видео: AVC; 1920x816 (2.35:1); 12396 Kbps; 23,976 fps; 0,330 bit/pixel
Аудио №1: Russian; AC3; 384 Kbps; CBR; 6 ch
Аудио №2: Russian; AC3; 192 Kbps; CBR; 2 ch
Аудио №3: Russian; AC3; 448 Kbps; CBR; 6 ch
Аудио №4: Russian; AC3; 192 Kbps; CBR; 2 ch
Аудио №5: DTS; 1509 Kbps; CBR; 6 ch; 24 bit

Субтитры: Russian, English

MediaInfo
Общее
Уникальный идентификатор : 191286155518983850498460584264910089201 (0x8FE85F9CC882C6E29A5E860F11E1ABF1)
Полное имя : Z:\WWW\TR-Downloads\Universal.Soldier.Regeneration.1080p.[R.G.Daredevil].mkv
Формат : Matroska
Версия формата : Version 2
Размер файла : 10,5 Гбайт
Продолжительность : 1 ч. 36 м.
Общий поток : 15,4 Мбит/сек
Дата кодирования : UTC 2011-05-03 16:38:15
Программа кодирования : mkvmerge v4.4.0 ('Die Wiederkehr') сборка от Oct 31 2010 21:52:48
Библиотека кодирования : libebml v1.0.0 + libmatroska v1.0.0

Видео
Идентификатор : 1
Формат : AVC
Формат/Информация : Advanced Video Codec
Профиль формата : High@L4.1
Параметр CABAC формата : Да
Параметр ReFrames формата : 5 кадров
Идентификатор кодека : V_MPEG4/ISO/AVC
Продолжительность : 1 ч. 36 м.
Битрейт : 12,7 Мбит/сек
Ширина : 1920 пикселей
Высота : 816 пикселей
Соотношение сторон : 2,35:1
Частота кадров : 23,976 кадра/сек
Цветовое пространство : YUV
Субдискретизация насыщенности : 4:2:0
Битовая глубина : 8 бит
Тип развёртки : Прогрессивная
Бит/(Пиксели*Кадры) : 0.338
Размер потока : 8,40 Гбайт (80%)
Библиотека кодирования : x264 core 85 r1442kGIT 781d300
Настройки программы : cabac=1 / ref=5 / deblock=1:-3:-3 / analyse=0x3:0x113 / me=umh / subme=10 / psy=1 / psy_rd=1.00:0.00 / mixed_ref=1 / me_range=64 / chroma_me=1 / trellis=2 / 8x8dct=1 / cqm=0 / deadzone=21,11 / fast_pskip=0 / chroma_qp_offset=-2 / threads=12 / sliced_threads=0 / nr=0 / decimate=0 / mbaff=0 / interlaced=0 / constrained_intra=0 / bframes=5 / b_pyramid=2 / b_adapt=2 / b_bias=0 / direct=2 / wpredb=1 / wpredp=2 / keyint=250 / keyint_min=25 / scenecut=40 / intra_refresh=0 / rc_lookahead=50 / rc=2pass / mbtree=1 / bitrate=12698 / ratetol=1.0 / qcomp=0.80 / qpmin=10 / qpmax=51 / qpstep=4 / cplxblur=20.0 / qblur=0.5 / vbv_maxrate=38000 / vbv_bufsize=30000 / ip_ratio=1.40 / aq=1:0.70 / pulldown=0 / nal_hrd=0
Default : Да
Forced : Нет

Аудио #1
Идентификатор : 2
Формат : AC-3
Формат/Информация : Audio Coding 3
Расширение режима : CM (complete main)
Параметр Endianness формата : Big
Идентификатор кодека : A_AC3
Продолжительность : 1 ч. 36 м.
Вид битрейта : Постоянный
Битрейт : 384 Кбит/сек
Каналы : 6 каналов
Расположение каналов : Front: L C R, Side: L R, LFE
Частота : 48,0 КГц
Битовая глубина : 16 бит
Метод сжатия : С потерями
Размер потока : 266 Мбайт (2%)
Заголовок : CP Digital
Язык : Russian
Default : Да
Forced : Нет

Аудио #2
Идентификатор : 3
Формат : AC-3
Формат/Информация : Audio Coding 3
Расширение режима : CM (complete main)
Параметр Endianness формата : Big
Идентификатор кодека : A_AC3
Продолжительность : 1 ч. 36 м.
Вид битрейта : Постоянный
Битрейт : 192 Кбит/сек
Каналы : 2 канала
Расположение каналов : Front: L R
Частота : 48,0 КГц
Битовая глубина : 16 бит
Метод сжатия : С потерями
Размер потока : 133 Мбайт (1%)
Заголовок : трехголосый 1001 Cinema
Язык : Russian
Default : Нет
Forced : Нет

Аудио #3
Идентификатор : 4
Формат : AC-3
Формат/Информация : Audio Coding 3
Расширение режима : CM (complete main)
Параметр Endianness формата : Big
Идентификатор кодека : A_AC3
Продолжительность : 1 ч. 36 м.
Вид битрейта : Постоянный
Битрейт : 448 Кбит/сек
Каналы : 6 каналов
Расположение каналов : Front: L C R, Side: L R, LFE
Частота : 48,0 КГц
Битовая глубина : 16 бит
Метод сжатия : С потерями
Размер потока : 311 Мбайт (3%)
Заголовок : двухголосый
Язык : Russian
Default : Нет
Forced : Нет

Аудио #4
Идентификатор : 5
Формат : AC-3
Формат/Информация : Audio Coding 3
Расширение режима : CM (complete main)
Параметр Endianness формата : Big
Идентификатор кодека : A_AC3
Продолжительность : 1 ч. 36 м.
Вид битрейта : Постоянный
Битрейт : 192 Кбит/сек
Каналы : 2 канала
Расположение каналов : Front: L R
Частота : 48,0 КГц
Битовая глубина : 16 бит
Метод сжатия : С потерями
Размер потока : 133 Мбайт (1%)
Заголовок : одноголосый
Язык : Russian
Default : Нет
Forced : Нет

Аудио #5
Идентификатор : 6
Формат : DTS
Формат/Информация : Digital Theater Systems
Идентификатор кодека : A_DTS
Продолжительность : 1 ч. 36 м.
Вид битрейта : Постоянный
Битрейт : 1510 Кбит/сек
Каналы : 6 каналов
Расположение каналов : Front: L C R, Side: L R, LFE
Частота : 48,0 КГц
Битовая глубина : 24 бит
Метод сжатия : С потерями
Размер потока : 1,02 Гбайт (10%)
Язык : English
Default : Нет
Forced : Нет

Текст #1
Идентификатор : 7
Формат : UTF-8
Идентификатор кодека : S_TEXT/UTF8
Идентификатор кодека/Информация : UTF-8 Plain Text
Язык : Russian
Default : Да
Forced : Нет

Текст #2
Идентификатор : 8
Формат : UTF-8
Идентификатор кодека : S_TEXT/UTF8
Идентификатор кодека/Информация : UTF-8 Plain Text
Язык : English
Default : Нет
Forced : Нет

Свернуть
"Знаете ли Вы, что..."
  • Сценарист Джон Фасано и его сын, Джон Коуди Фасано, разработали проекты спецкостюмов для старых и новых моделей универсальных солдат в US:TNG.
  • Дольф Лундгрен был занят на съёмках картины в течение всего 5 дней, в то время, как съёмки Жан-Клода длились 20 дней.
  • Универсальный солдат ещё будучи на стадии производства последовательно сменил 3 рабочих названия: «Новое начало» (A New Beginning), затем «Следующие поколение» (The Next Generation), пока не остановился на окончательном - «Универсальный солдат: Возрождение» (Universal Soldier: Regeneration).
Свернуть
Скриншоты

Изображение
Изображение
Изображение
Изображение
Изображение
Свернуть
Не в сети
Профиль  
 Добавлено: 2013-06-02 16:38 (спустя 7 месяцев)
Стаж: 9 лет
Сообщений: 17
Спасибок: 60
когда раздающий будет в сети?
Не в сети
Профиль  
Начать новую темуОтветить на тему  [ Сообщений: 2 ] 
Вы не можете начинать темы
Вы не можете отвечать на сообщения
Вы не можете редактировать свои сообщения
Вы не можете удалять свои сообщения