Правила форума

  • В этом разделе создание новых тем Запрещено.
  • Для создания новых тем пользуйтесь Корневым разделом DVD и HD фильмы.
Начать новую темуОтветить на тему  [ Сообщений: 8 ] 
Торрент файл
Размер: 3.91 GB • Зарегистрирован: 4 года • Статус: Проверено
Скачан: 99 раз • Желающих скачать: 0 • Поблагодарили: 30 раз
 Раздают: 0  |  0 KB/s  ]   Качают: 0  |  0 KB/s  ] 
 Полного источника не было 2 года 10 месяцев 
Сообщения
 Добавлено: 2012-11-25 09:50
Модератор
Аватара пользователя
Стаж: 6 лет 10 месяцев
Возраст: 33
Сообщений: 5908
Спасибок: 61259
Лайков: 3540
Изображение

Универсальный солдат 4
Universal Soldier: Day of Reckoning


Год выпуска: 2012
Страна: США
Слоган: «Under their own command»
Жанр: фантастика, боевик, триллер
Продолжительность: 01:36:05
Перевод: Профессиональный (полное дублирование)
Режиссер: Джон Хайамс
Сценарий: Джон Хайамс, Даг Магнусон, Джон Гринхалг, Моше Дайамант, Ричард Ротстайн
Продюсер: Аллен Шапиро, Крэйг Баумгартен, Моше Дайамант, Йорам Барзилай, Катерина Сланчева
Оператор: Ярон Леви
Композитор: Майкл Красснер
В ролях: Жан-Клод Ван Дамм, Скотт Эдкинс, Андрей Арловский, Дольф Лундгрен, Кристофер Ван Варенберг, Мария Боннер, Джеймс Роулингс, Сигал Дайэмант, Дэвид Дженсен, Одри П. Скотт, Остин Нолти, Рас Блэквелл
Бюджет: $11 500 000
Сборы в России: $580 850
Мировая премьера: 23 августа 2012
Релиз на DVD: 5 ноября 2012, «Новый Диск»
Описание: Настоящее время. Программа «Unisol» по-прежнему актуальна и снова введена в эксплуатацию. Давним и непримиримым врагам времён Вьетнамской войны Эндрю Скотту и Люку Деверо суждено встретиться в очередной раз, дабы продолжить своё извечное противостояние и нескончаемую борьбу. Однако, новые опасности и трудности заставляют двух солдат на время объединиться пред лицом общей неприятности, что весьма ненадолго. Ясно одно: кровавый исход и брутальный финал неизбежен.

Изображение User Rating: 4.626 (1 881)
Изображение User Rating: 5.50 (3 036)
MPAA: R - Лицам до 17 лет обязательно присутствие взрослого
Релиз группы: Изображение
Раздача группы: Изображение
Изображение
Качество: BDRip, 720p
Формат: Matroska
Видео: 4014 Kb/s, 1280x536
Аудио №1: Russian: AC3, 448 Kb/s (6 ch) / English: AC3, 384 Kb/s (6 ch)
Субтитры: English
mediainfo
Общее
Уникальный идентификатор : 190950844920275646511423703875766671223 (0x8FA7CB86063FCD61A1F5C1C5B8635777)
Полное имя : Universal.Soldier.Day.of.Reckoning.2012.720p.WEB-DL.mkv
Формат : Matroska
Версия формата : Version 2
Размер файла : 3,91 Гбайт
Продолжительность : 1 ч. 53 м.
Общий поток : 4936 Кбит/сек
Дата кодирования : UTC 2012-11-24 20:07:24
Программа кодирования : mkvmerge v5.8.0 ('No Sleep / Pillow') built on Sep 2 2012 15:37:04
Библиотека кодирования : libebml v1.2.3 + libmatroska v1.3.0

Видео
Идентификатор : 1
Формат : AVC
Формат/Информация : Advanced Video Codec
Профиль формата : Main@L3.1
Параметр CABAC формата : Нет
Параметр ReFrames формата : 2 кадра
Идентификатор кодека : V_MPEG4/ISO/AVC
Продолжительность : 1 ч. 53 м.
Битрейт : 4006 Кбит/сек
Ширина : 1280 пикселей
Высота : 536 пикселей
Соотношение сторон : 2,40:1
Частота кадров : 23,976 кадра/сек
Цветовое пространство : YUV
Субдискретизация насыщенности : 4:2:0
Битовая глубина : 8 бит
Тип развёртки : Прогрессивная
Бит/(Пиксели*Кадры) : 0.244
Размер потока : 3,17 Гбайт (81%)
Язык : English
Default : Да
Forced : Нет
Основные цвета : BT.709-5, BT.1361, IEC 61966-2-4, SMPTE RP177
Характеристики трансфера : BT.709-5, BT.1361
Коэффициенты матрицы : BT.709-5, BT.1361, IEC 61966-2-4 709, SMPTE RP177

Аудио #1
Идентификатор : 2
Формат : AC-3
Формат/Информация : Audio Coding 3
Расширение режима : CM (complete main)
Идентификатор кодека : A_AC3
Продолжительность : 1 ч. 53 м.
Вид битрейта : Постоянный
Битрейт : 448 Кбит/сек
Каналы : 6 каналов
Расположение каналов : Front: L C R, Side: L R, LFE
Частота : 48,0 КГц
Битовая глубина : 16 бит
Метод сжатия : С потерями
Размер потока : 363 Мбайт (9%)
Заголовок : RUS DUB
Язык : Russian
Default : Да
Forced : Да

Аудио #2
Идентификатор : 3
Формат : AC-3
Формат/Информация : Audio Coding 3
Расширение режима : CM (complete main)
Идентификатор кодека : A_AC3
Продолжительность : 1 ч. 53 м.
Вид битрейта : Постоянный
Битрейт : 384 Кбит/сек
Каналы : 6 каналов
Расположение каналов : Front: L C R, Side: L R, LFE
Частота : 48,0 КГц
Битовая глубина : 16 бит
Метод сжатия : С потерями
Размер потока : 311 Мбайт (8%)
Язык : English
Default : Нет
Forced : Нет

Текст
Идентификатор : 4
Формат : UTF-8
Идентификатор кодека : S_TEXT/UTF8
Идентификатор кодека/Информация : UTF-8 Plain Text
Язык : English
Default : Да
Forced : Нет

Меню
00:00:00.000 : en:Chapter 1
00:06:44.000 : en:Chapter 2
00:16:52.000 : en:Chapter 3
00:23:27.000 : en:Chapter 4
00:29:58.000 : en:Chapter 5
00:37:52.000 : en:Chapter 6
00:46:21.000 : en:Chapter 7
00:52:50.000 : en:Chapter 8
00:59:21.000 : en:Chapter 9
01:08:44.000 : en:Chapter 10
01:18:08.000 : en:Chapter 11
01:21:28.000 : en:Chapter 12
01:34:37.000 : en:Chapter 13
01:41:56.000 : en:Chapter 14
01:46:28.000 : en:Chapter 15
Свернуть
Скриншоты

Изображение
Изображение
Изображение
Изображение
Свернуть
_________________
ИзображениеИзображение Изображение
Изображение
 tany1984 и di-ys1 нравится это.
Не в сети
Профиль  
 Добавлено: 2012-11-25 10:54 (спустя 1 час 3 минуты)
Аватара пользователя
Стаж: 7 лет 2 месяца
Сообщений: 7167
Спасибок: 82004
Лайков: 2438
Зачётные первые две части были, дальше порожняк.За ЖКВД-спс.
Не в сети
Профиль  
 Добавлено: 2012-11-25 15:00 (спустя 4 часа)
Аватара пользователя
Стаж: 4 года 1 месяц
Возраст: 21
Сообщений: 1360
Лайков: 7
глянем
_________________
Если ты это читаешь, значит ты неудачник.
Не в сети
Профиль  
 Добавлено: 2012-11-25 15:06 (спустя 6 минут)
Модератор
Аватара пользователя
Стаж: 6 лет 10 месяцев
Возраст: 33
Сообщений: 5908
Спасибок: 61259
Лайков: 3540

di-ys1:

Зачётные первые две части были, дальше порожняк.За ЖКВД-спс.
:-ok-:
_________________
ИзображениеИзображение Изображение
Изображение
Не в сети
Профиль  
 Добавлено: 2012-11-27 19:37 (спустя 2 дня 4 часа)
Аватара пользователя
Стаж: 7 лет 9 месяцев
Сообщений: 19
Эх и шляпа... Ребят, не качайте, только время зря потратите.
Не в сети
Профиль  
 Добавлено: 2012-12-01 19:50 (спустя 4 дня)
Стаж: 4 года 2 месяца
Сообщений: 8
РЕАЛЬНАЯ ЖОПА . СКОЛЬКО БРАВЫМ ПЕНСИОНЕРАМ ЗАПЛАТИЛИ ЗА СЪЕМКУ - ВОПРОС . ХРЕНЬ ОТМЕННАЯ - ОЦЕНКА 0- ( ЛУЧШЕ И НЕ НАЧИНАТЬ ТРАТИТЬ СВОЕ ДРАГОЦЕННОЕ ВРЕМЯ ) . А ВООБЩЕ 1 ЧАСТЬ В СВОЕ ВРЕМЯ БЫЛА ПРИКОЛЬНАЯ - С УЧЕТОМ 20-ТИ ЛЕТНЕЙ ДАВНОСТИ . ( ЗЛОДЕЙ )
Не в сети
Профиль  
 Добавлено: 2012-12-04 12:35 (спустя 2 дня 16 часов)
Аватара пользователя
Стаж: 7 лет 11 месяцев
Сообщений: 10
Спасибок: 1
Полнейшая хрень :po_zor: :zvez_ochki: :al_kana_ft:
Не в сети
Профиль  
 Добавлено: 2012-12-14 14:33 (спустя 10 дней)
Аватара пользователя
Стаж: 6 лет 9 месяцев
Сообщений: 922
видел часть под номером 3 :ze_le_ny: до сих пор не отойду....
Не в сети
Профиль  
Начать новую темуОтветить на тему  [ Сообщений: 8 ] 
Вы не можете начинать темы
Вы не можете отвечать на сообщения
Вы не можете редактировать свои сообщения
Вы не можете удалять свои сообщения