Правила форума

  • В этом разделе создание новых тем Запрещено.
  • Для создания новых тем пользуйтесь Корневым разделом DVD и HD фильмы.
Начать новую темуОтветить на тему  [ Сообщений: 3 ] 
Торрент файл
Размер: 8.3 GB • Зарегистрирован: 3 года 11 месяцев • Статус: Проверено
Скачан: 40 раз • Желающих скачать: 0 • Поблагодарили: 13 раз
 Раздают: 0  |  0 KB/s  ]   Качают: 0  |  0 KB/s  ] 
 Полного источника не было 2 года 9 месяцев 
Сообщения
 Добавлено: 2012-12-27 13:17
Аватара пользователя
Стаж: 9 лет 1 месяц
Сообщений: 7969
Спасибок: 122181
Лайков: 1191
Универсальный солдат 4 / Universal Soldier: Day of Reckoning

«Under their own command»

Изображение


Год выпуска: 2012
Страна: Изображение США
Жанр: фантастика, боевик, триллер
Продолжительность: 01:53:37
Субтитры: Английские
Перевод: Профессиональный (полное дублирование)


Режиссёр: Джон Хайамс
Сценарист: Джон Хайамс, Даг Магнусон, Джон Гринхалг
Продюсер: Крэйг Баумгартен, Моше Дайамант, Аллен Шапиро
Оператор: Ярон Леви
Композитор: Майкл Красснер

В ролях: Жан-Клод Ван Дамм, Скотт Эдкинс, Андрей Арловский, Дольф Лундгрен, Кристофер Ван Варенберг, Мария Боннер, Джеймс Роулингс, Сигал Дайэмант, Остин Нолти, Адри П. Скотт, Рой Джонс мл., Дэвид Дженсен, Рас Блэквелл, Глен Уорнер, Дэйн Родс

Описание: Настоящее время. Программа «Unisol» по-прежнему актуальна и снова введена в эксплуатацию. Давним и непримиримым врагам времён Вьетнамской войны Эндрю Скотту и Люку Деверо суждено встретиться в очередной раз, дабы продолжить своё извечное противостояние и нескончаемую борьбу. Однако, новые опасности и трудности заставляют двух солдат на время объединиться пред лицом общей неприятности, что весьма ненадолго. Ясно одно: кровавый исход и брутальный финал неизбежен…

Изображение Изображение

Качество: BDRip (1080p)
Формат: Matroska
Видео: MPEG-4 AVC, 8500 Кбит/с, 1920x818, 23.976 Кадр/с
Аудио №1: Русский (AC3, 6 ch, 448 Кбит/с)
Аудио №2: Английский (DTS, 6 ch, 1510 Кбит/с)

MediaInfo
Общее
Уникальный идентификатор : 187340998497627472646342804054634382422 (0x8CF0905A8EBB548699D1CA10C863C456)
Полное имя : H:\Universal.Soldier.Day.of.Reckoning.2012.1080p.BluRay.Rus.Eng.HDCLUB.nntt.org.mkv
Формат : Matroska
Версия формата : Version 2
Размер файла : 8,30 Гбайт
Продолжительность : 1 ч. 53 м.
Общий поток : 10,5 Мбит/сек
Название фильма : HDCLUB present "Universal Soldier: Day of Reckoning (2012)"
Дата кодирования : UTC 2012-12-26 10:54:18
Программа кодирования : mkvmerge v5.6.0 ('Kenya Kane') built on May 27 2012 16:44:04
Библиотека кодирования : libebml v1.2.3 + libmatroska v1.3.0

Видео
Идентификатор : 1
Формат : AVC
Формат/Информация : Advanced Video Codec
Профиль формата : High@L4.1
Параметр CABAC формата : Да
Параметр ReFrames формата : 5 кадров
Идентификатор кодека : V_MPEG4/ISO/AVC
Продолжительность : 1 ч. 53 м.
Битрейт : 8500 Кбит/сек
Ширина : 1920 пикселей
Высота : 818 пикселей
Соотношение сторон : 2,35:1
Режим частоты кадров : Постоянный
Частота кадров : 23,976 кадра/сек
Цветовое пространство : YUV
Субдискретизация насыщенности : 4:2:0
Битовая глубина : 8 бит
Тип развёртки : Прогрессивная
Бит/(Пиксели*Кадры) : 0.226
Размер потока : 6,58 Гбайт (79%)
Заголовок : Universal.Soldier.Day.of.Reckoning.2012.1080p.BluRay.Rus.Eng.HDCLUB
Библиотека кодирования : x264 core 129 r2230 1cffe9f
Настройки программы : cabac=1 / ref=5 / deblock=1:-3:-3 / analyse=0x3:0x133 / me=tesa / subme=11 / psy=1 / psy_rd=1.00:0.00 / mixed_ref=1 / me_range=24 / chroma_me=1 / trellis=2 / 8x8dct=1 / cqm=0 / deadzone=21,11 / fast_pskip=0 / chroma_qp_offset=-2 / threads=12 / lookahead_threads=2 / sliced_threads=0 / nr=0 / decimate=1 / interlaced=0 / bluray_compat=0 / constrained_intra=0 / bframes=7 / b_pyramid=2 / b_adapt=2 / b_bias=0 / direct=3 / weightb=1 / open_gop=0 / weightp=2 / keyint=250 / keyint_min=23 / scenecut=40 / intra_refresh=0 / rc_lookahead=60 / rc=2pass / mbtree=0 / bitrate=8500 / ratetol=1.0 / qcomp=0.60 / qpmin=0 / qpmax=69 / qpstep=4 / cplxblur=20.0 / qblur=0.5 / vbv_maxrate=50000 / vbv_bufsize=62500 / nal_hrd=none / ip_ratio=1.40 / pb_ratio=1.30 / aq=1:0.80
Язык : English
Default : Да
Forced : Да

Аудио #1
Идентификатор : 2
Формат : AC-3
Формат/Информация : Audio Coding 3
Расширение режима : CM (complete main)
Параметр Endianness формата : Big
Идентификатор кодека : A_AC3
Продолжительность : 1 ч. 53 м.
Вид битрейта : Постоянный
Битрейт : 448 Кбит/сек
Каналы : 6 каналов
Расположение каналов : Front: L C R, Side: L R, LFE
Частота : 48,0 КГц
Битовая глубина : 16 бит
Метод сжатия : С потерями
Размер потока : 364 Мбайт (4%)
Заголовок : DD 5.1 @ 448 kbps - Dubbed [R5]
Язык : Russian
Default : Да
Forced : Да

Аудио #2
Идентификатор : 3
Формат : DTS
Формат/Информация : Digital Theater Systems
Режим : 16
Параметр Endianness формата : Big
Идентификатор кодека : A_DTS
Продолжительность : 1 ч. 53 м.
Вид битрейта : Постоянный
Битрейт : 1509 Кбит/сек
Каналы : 6 каналов
Расположение каналов : Front: L C R, Side: L R, LFE
Частота : 48,0 КГц
Битовая глубина : 16 бит
Метод сжатия : С потерями
Размер потока : 1,20 Гбайт (14%)
Заголовок : DTS 5.1 @ 1509 kbps - Original [Bluray GER]
Язык : English
Default : Нет
Forced : Нет

Текст
Идентификатор : 4
Формат : UTF-8
Идентификатор кодека : S_TEXT/UTF8
Идентификатор кодека/Информация : UTF-8 Plain Text
Язык : English
Default : Нет
Forced : Нет

Меню
00:00:00.000 : en:Opening
00:06:36.104 : en:The 410 Crew
00:16:42.459 : en:Battle with Royalty
00:23:33.078 : en:The Audition
00:29:24.012 : en:New School, New Friends
00:37:57.191 : en:Special Attention
00:49:45.983 : en:"Msa After Hours"
00:59:27.230 : en:Msa Crew Prank
01:08:42.451 : en:"It's Over"
01:18:18.902 : en:Fundraiser vs. the Streets
01:27:51.891 : en:Back to the Streets
01:34:59.860 : en:End Credits
01:53:37.811 : en:End Marker
Свернуть
Скриншоты
Изображение
Изображение
Изображение
Изображение
Изображение
Свернуть
Не в сети
Профиль  
 Добавлено: 2013-01-05 15:59 (спустя 9 дней)
Аватара пользователя
Стаж: 9 лет
Сообщений: 48
Спасибок: 217
Лайков: 2
Люди, выросшие в 90е, не смотрите. Главный засранец убил героев нашего детства :sh_ok:
Не в сети
Профиль  
 Добавлено: 2013-01-05 18:13 (спустя 2 часа 14 минут)
Аватара пользователя
Стаж: 6 лет 9 месяцев
Сообщений: 922
не боись выйдет еще 5я часть где их клонируют из того что осталось
Не в сети
Профиль  
Начать новую темуОтветить на тему  [ Сообщений: 3 ] 
Вы не можете начинать темы
Вы не можете отвечать на сообщения
Вы не можете редактировать свои сообщения
Вы не можете удалять свои сообщения