Правила форума

  • В этом разделе создание новых тем Запрещено.
  • Для создания новых тем пользуйтесь Корневым разделом DVD и HD фильмы.
Начать новую темуОтветить на тему  [ 1 сообщение ] 
Торрент файл
Размер: 10.42 GB • Зарегистрирован: 4 года 1 месяц • Статус: Проверено
Скачан: 17 раз • Желающих скачать: 0 • Поблагодарили: 4 раза
 Раздают: 0  |  0 KB/s  ]   Качают: 0  |  0 KB/s  ] 
 Полного источника не было 2 года 5 месяцев 
Сообщения
 Добавлено: 2012-10-10 17:59
Top-releaser
Аватара пользователя
Стаж: 6 лет 7 месяцев
Сообщений: 2078
Спасибок: 3230
Лайков: 9
Изображение

Универсальный солдат
Universal Soldier


Год выпуска: 1992
Страна: США
Слоган: «Genetically enhanced machines.»
Жанр: фантастика, боевик, драма
Продолжительность: 01:43:44
Перевод: Профессиональный (многоголосый, закадровый)
Режиссер: Роланд Эммерих
Сценарий: Ричард Ротстайн, Кристофер Лейтч, Дин Девлин
Продюсер: Крэйг Баумгартен, Оливер Эберли, Дональд Хайцер, Марио Кассар, Джоэль Б. Майклс
Оператор: Карл Вальтер Линденлауб
Композитор: Кристофер Франке, Айс-Ти, Гарри Шеннон, Тим Саймонек
В ролях: Жан-Клод Ван Дамм, Дольф Лундгрен, Элли Уокер, Эд О’Росс, Джерри Орбак, Леон Риппи, Тико Уэллс, Ральф Мёллер, Роберт Требор, Джин Дэвис, Дрю Снайдер, Том ’Тайни’ Листер мл.
Бюджет: $23 000 000
Сборы в США: $36 299 898
Мировая премьера: 10 июля 1992
Релиз на DVD: 8 сентября 2009, «Юниверсал Пикчерс Рус»
Описание: Вьетнам, 1969 год, первая стычка двух американских солдат - Люка и Скотта: Люк не может стрелять в безоружных людей, Скотт же готов убивать и убивать с нечеловечески-яростной жестокостью, о которой свидетельствует ожерелье из ушей, отрезанных им у вьетнамцев. Спустя годы Люк и Скотт вновь оказываются в одном отряде - спецподразделении «универсальных солдат», которых бросают на выполнение самых опасных заданий (например, на ликвидацию террористов).
«Универсального солдата» можно попытаться убить, но он будет подниматься вновь и вновь, и если понадобится, то ученые, работающие над сверхсекретным военным проектом, в специальной лаборатории займутся оживлением серьезно пострадавшего «универсала». Однако, даже зная об этом, Скотт с упорством маньяка будет преследовать Люка, чтобы сойтись с ним в решающем поединке не на жизнь, а на смерть.


Изображение User Rating: 6.973 (11 507)
Изображение User Rating: 5.80 (40 660)
MPAA: R - Лицам до 17 лет обязательно присутствие взрослого
Качество: BDRip, 1080p
Формат: Matroska
Видео: AVC; 1920x816 (2.35:1); 10094 Kbps; 23,976 fps; 0,269 bit/pixel
Аудио №1: Russian; AC3; 384 Kbps; CBR; 6 ch - Многоголосый закадровый, Twister
Аудио №2: English; DTS; 1509 Kbps; CBR; 6 ch; 24 bit
Аудио №3: English; AC3; 192 Kbps; CBR; 2 ch - Commentary
Аудио №4: Russian; AC3; 448 Kbps; CBR; 2 ch - Многоголосый закадровый, AuraFilm
Аудио №5: Russian; DTS; 1536 Kbps; CBR; 2 ch - Одноголосый закадровый, Горчаков
Субтитры: Russian

MediaInfo
Общее
Уникальный идентификатор : 199659286437226398246982914039874351489 (0x9634FAD6F45557B68EC35B01304C7181)
Полное имя : Z:\WWW\TR-Downloads\Universal.Soldier.1992.1080p[R.G.Daredevil]\Universal.Soldier.1992.1080p.mkv
Формат : Matroska
Версия формата : Version 1
Размер файла : 9,01 Гбайт
Продолжительность : 1 ч. 43 м.
Общий поток : 12,4 Мбит/сек
Дата кодирования : UTC 2008-11-02 14:43:18
Программа кодирования : mkvmerge v2.4.0 ('Fumbling Towards Ecstasy') built on Oct 11 2008 20:13:15
Библиотека кодирования : libebml v0.7.7 + libmatroska v0.8.1

Видео
Идентификатор : 1
Формат : AVC
Формат/Информация : Advanced Video Codec
Профиль формата : High@L4.1
Параметр CABAC формата : Да
Параметр ReFrames формата : 4 кадра
Параметр GOP формата : N=1
Идентификатор кодека : V_MPEG4/ISO/AVC
Продолжительность : 1 ч. 43 м.
Битрейт : 10,3 Мбит/сек
Ширина : 1920 пикселей
Высота : 816 пикселей
Соотношение сторон : 2,35:1
Частота кадров : 23,976 кадра/сек
Цветовое пространство : YUV
Субдискретизация насыщенности : 4:2:0
Битовая глубина : 8 бит
Тип развёртки : Прогрессивная
Бит/(Пиксели*Кадры) : 0.275
Размер потока : 7,31 Гбайт (81%)
Заголовок : Universal Soldier (1992)
Библиотека кодирования : x264 core 65 r999M cc51047
Настройки программы : cabac=1 / ref=4 / deblock=1:-3:-3 / analyse=0x3:0x113 / me=umh / subme=9 / psy_rd=1.0:0.8 / mixed_ref=1 / me_range=32 / chroma_me=1 / trellis=2 / 8x8dct=1 / cqm=0 / deadzone=21,11 / chroma_qp_offset=-4 / threads=6 / nr=0 / decimate=1 / mbaff=0 / bframes=3 / b_pyramid=0 / b_adapt=2 / b_bias=0 / direct=3 / wpredb=1 / keyint=250 / keyint_min=25 / scenecut=40(pre) / rc=2pass / bitrate=10338 / ratetol=1.0 / qcomp=0.60 / qpmin=10 / qpmax=51 / qpstep=4 / cplxblur=20.0 / qblur=0.5 / ip_ratio=1.40 / pb_ratio=1.30 / aq=1:0.60
Язык : English
Default : Да
Forced : Нет

Аудио #1
Идентификатор : 2
Формат : AC-3
Формат/Информация : Audio Coding 3
Расширение режима : CM (complete main)
Параметр Endianness формата : Big
Идентификатор кодека : A_AC3
Продолжительность : 1 ч. 43 м.
Вид битрейта : Постоянный
Битрейт : 384 Кбит/сек
Каналы : 6 каналов
Расположение каналов : Front: L C R, Side: L R, LFE
Частота : 48,0 КГц
Битовая глубина : 16 бит
Метод сжатия : С потерями
Размер потока : 285 Мбайт (3%)
Заголовок : AC3 5.1, 384 kbps (Twister)
Язык : Russian
Default : Да
Forced : Нет

Аудио #2
Идентификатор : 3
Формат : DTS
Формат/Информация : Digital Theater Systems
Идентификатор кодека : A_DTS
Продолжительность : 1 ч. 43 м.
Вид битрейта : Постоянный
Битрейт : 1510 Кбит/сек
Каналы : 6 каналов
Расположение каналов : Front: L C R, Side: L R, LFE
Частота : 48,0 КГц
Битовая глубина : 24 бит
Метод сжатия : С потерями
Размер потока : 1,09 Гбайт (12%)
Заголовок : DTS 5.1, 1536 kbps
Язык : English
Default : Нет
Forced : Нет

Аудио #3
Идентификатор : 4
Формат : AC-3
Формат/Информация : Audio Coding 3
Профиль формата : Dolby Digital
Расширение режима : CM (complete main)
Параметр Endianness формата : Big
Идентификатор кодека : A_AC3
Продолжительность : 1 ч. 43 м.
Вид битрейта : Постоянный
Битрейт : 192 Кбит/сек
Каналы : 2 канала
Расположение каналов : Front: L R
Частота : 48,0 КГц
Битовая глубина : 16 бит
Метод сжатия : С потерями
Размер потока : 142 Мбайт (2%)
Заголовок : AC3 2.0, 192 kbps (Commentary)
Язык : English
Default : Нет
Forced : Нет

Текст
Идентификатор : 5
Формат : UTF-8
Идентификатор кодека : S_TEXT/UTF8
Идентификатор кодека/Информация : UTF-8 Plain Text
Язык : Russian
Default : Нет
Forced : Нет
Свернуть
"Знаете ли Вы, что..."
  • Во время показа оригинального трейлера в кадре играла музыка из фильма «Терминатор 2»
  • Слова «вот видите, они повсюду» являеться импровизацией Лундгрена.
  • Финальная драка снималась три дня.
  • Ральф Мюллер, сыгравший одного из солдат уже играл с Ван Даммом в фильме «Киборг».
  • Постановщиком трюков в картине был Вик Армстронг - позже Лундгрен сыграл в режиссёрском дебюте Вика - «Дерево Джошуа».
  • Первоначально режиссёром должен был стать Эндрю Девис, но продюсеры предпочли европейца Эммериха, мотивируя это тем, что с двумя европейцами-актерами лучше будет работать европеец-режиссер.
  • Первоначально, фильм должен был закончиться тем, что и Лундгрена, и Ван Дамма убивают приехавшие военные.
  • Из фильма был вырезан эпизод, в котором Лундгрен рассказывает плачущему ребёнку и его матери об ужасах войны - как именно он перерезал глотки вьетконговцам и т. д.
  • На ранних этапах создания картины (тогда ещё «Кристальные рыцари») работал сценарист Рос ЛаМанна (Час Пик 1,2).
  • Первоначально создатели фильма никак не могли определиться в выборе место съемок. Было два варианта: Мексика и Центральная Европа. Но в итоге картина снималась на юге США в штатах Аризона (города Эшфорк, Хлорид и Киннгмен) и Невада (г. Лейк Мид).
  • О начале проекта создания фильма было объявлено еще в начале 1990 года, старт съемочного процесса состоялся 12 августа 1991 года.
  • Лундгрен познакомился с будущей женой во время съёмок этого фильма.
Свернуть
Скриншоты

Изображение
Изображение
Изображение
Изображение
Изображение
Свернуть
Не в сети
Профиль  
Начать новую темуОтветить на тему  [ 1 сообщение ] 
Вы не можете начинать темы
Вы не можете отвечать на сообщения
Вы не можете редактировать свои сообщения
Вы не можете удалять свои сообщения