Правила форума

  • В этом разделе создание новых тем Запрещено.
  • Для создания новых тем пользуйтесь Корневым разделом DVD и HD фильмы.
Начать новую темуОтветить на тему  [ Сообщений: 7 ] 
Торрент файл
Размер: 8.06 GB • Зарегистрирован: 5 лет 1 месяц • Статус: Проверено
Скачан: 197 раз • Желающих скачать: 0 • Поблагодарили: 18 раз
 Раздают: 0  |  0 KB/s  ]   Качают: 0  |  0 KB/s  ] 
 Полного источника не было 3 года 2 месяца 
Сообщения
 Добавлено: 2011-11-05 01:27
Top-releaser
Стаж: 7 лет 4 месяца
Возраст: 33
Сообщений: 409
Спасибок: 6402
Лайков: 6
Успеть за 30 минут
30 Minutes or Less

Изображение
Год выпуска: 2011
Страна: США, Германия, Канада
Жанр: боевик, комедия, криминал, приключения
Продолжительность: 01:23:03
Перевод: Профессиональный (дублирование)

Режиссер: Рубен Фляйшер (Ruben Fleischer)
Сценарий: Майкл Дилиберти / Michael Diliberti, Мэттью Салливан / Matthew Sullivan
Продюсер: Стюарт Корнфелд / Stuart Cornfeld, Джереми Крамер / Jeremy Kramer, Бен Стиллер / Ben Stiller, Кит Джордано / Kit Giordano, Моника Левинсон / Monica Levinson
Оператор: Джесс Холл / Jess Hall
Композитор: Людвиг Горанссон / Ludwig Goransson

В ролях: Джесси Айзенберг (Nick), Азиз Ансари (Chet), Дэнни МакБрайд (Dwayne), Ник Свардсон (Travis), Дилшэд Вэдсариа (Kate), Майкл Пенья (Chango), Бьянка Кайлич (Juicy), Фред Уорд (The Major), Сэм Джонстон (15 Year Old #1), Джек Фоли (15 Year Old #2), Elizabeth Wright-Shapiro (Chet's Date), Бретт Гельман (Pizza Boss)
Дублёры: Прохор Чеховской (Nick), Михаил Тихонов (Chet), Пётр Иващенко (Dwayne), Диомид Виноградов (Travis), Лина Иванова (Kate), Илья Хвостиков (Chango)

Описание: Ник - простой разносчик пиццы, чья размеренная жизнь буквально в одно мгновенье переворачивается с ног на голову, когда в нее с хитроумным планом врываются два бандита, мечтающих сорвать большой куш. Безбашенная парочка похищает Ника с целью заставить его ограбить банк.
Ник понимает, что ему никак не обойтись без помощи своего лучшего друга Чета. Вместе приятели должны обвести вокруг пальца похитителей, не попасться в руки полиции, да еще и разобраться друг с другом - ведь их отношения далеко не безоблачны. На эту практически невыполнимую миссию друзьям отведены считанные часы.

Рейтинг
Kinopoisk.RU: 6.331 (5 022)
Imdb.com: 6.50 (6 667)
Mpaa: Изображение

Качество: BDRip 1080p
Формат: MKV
Видео: AVC; 1920x800 (2.40:1); 11935 Kbps; 23,976 fps; 0,324 bpp
Аудио №1: Rus; AC3; 448 Kbps; CBR; 6 ch; 16 bit
Аудио №2: Eng; DTS; 1509 Kbps; CBR; 6 ch; 24 bit
Субтитры: English

MI
General
Unique ID : 236850865531731745323229350081504090423 (0xB22FD142F8CCA76ABF6C01865F0E1937)
Complete name : D:\uTorrent\30.Minutes.or.Less.2011.BDRip.1080p.mkv
Format : Matroska
Format version : Version 2
File size : 8.06 GiB
Duration : 1h 23mn
Overall bit rate : 13.9 Mbps
Encoded date : UTC 2011-11-04 20:13:42
Writing application : mkvmerge v5.0.1 ('Es ist Sommer') built on Oct 9 2011 11:55:43
Writing library : libebml v1.2.2 + libmatroska v1.3.0

Video
ID : 1
Format : AVC
Format/Info : Advanced Video Codec
Format profile : High@L4.1
Format settings, CABAC : Yes
Format settings, ReFrames : 5 frames
Codec ID : V_MPEG4/ISO/AVC
Duration : 1h 23mn
Bit rate : 11.9 Mbps
Width : 1 920 pixels
Height : 800 pixels
Display aspect ratio : 2.40:1
Frame rate : 23.976 fps
Color space : YUV
Chroma subsampling : 4:2:0
Bit depth : 8 bits
Scan type : Progressive
Bits/(Pixel*Frame) : 0.324
Stream size : 6.76 GiB (84%)
Title : x264 Video Stream
Writing library : x264 core 116 r2074 2641b9e
Encoding settings : cabac=1 / ref=5 / deblock=1:-3:-3 / analyse=0x3:0x133 / me=umh / subme=10 / psy=1 / psy_rd=1.05:0.10 / mixed_ref=1 / me_range=64 / chroma_me=1 / trellis=2 / 8x8dct=1 / cqm=0 / deadzone=21,11 / fast_pskip=0 / chroma_qp_offset=-3 / threads=9 / sliced_threads=0 / nr=0 / decimate=0 / interlaced=0 / bluray_compat=0 / constrained_intra=0 / bframes=8 / b_pyramid=2 / b_adapt=2 / b_bias=0 / direct=3 / weightb=1 / open_gop=0 / weightp=2 / keyint=360 / keyint_min=2 / scenecut=40 / intra_refresh=0 / rc_lookahead=120 / rc=2pass / mbtree=1 / bitrate=11935 / ratetol=1.0 / qcomp=0.70 / qpmin=0 / qpmax=69 / qpstep=4 / cplxblur=20.0 / qblur=0.5 / ip_ratio=1.40 / aq=2:1.00

Audio #1
ID : 2
Format : AC-3
Format/Info : Audio Coding 3
Mode extension : CM (complete main)
Codec ID : A_AC3
Duration : 1h 23mn
Bit rate mode : Constant
Bit rate : 448 Kbps
Channel(s) : 6 channels
Channel positions : Front: L C R, Side: L R, LFE
Sampling rate : 48.0 KHz
Bit depth : 16 bits
Compression mode : Lossy
Stream size : 266 MiB (3%)
Title : DUB
Language : Russian

Audio #2
ID : 3
Format : DTS
Format/Info : Digital Theater Systems
Codec ID : A_DTS
Duration : 1h 23mn
Bit rate mode : Constant
Bit rate : 1 510 Kbps
Channel(s) : 6 channels
Channel positions : Front: L C R, Side: L R, LFE
Sampling rate : 48.0 KHz
Bit depth : 24 bits
Compression mode : Lossy
Stream size : 897 MiB (11%)
Title : English DTS 5.1
Language : English

Text
ID : 4
Format : UTF-8
Codec ID : S_TEXT/UTF8
Codec ID/Info : UTF-8 Plain Text
Language : English

Menu
00:00:00.000 : en:Chapter.01
00:04:02.283 : en:Chapter.02
00:10:14.322 : en:Chapter.03
00:15:47.905 : en:Chapter.04
00:20:26.642 : en:Chapter.05
00:27:07.000 : en:Chapter.06
00:30:19.984 : en:Chapter.07
00:35:03.017 : en:Chapter.08
00:41:10.926 : en:Chapter.09
00:45:14.712 : en:Chapter.10
00:49:54.449 : en:Chapter.11
00:54:01.821 : en:Chapter.12
00:58:42.185 : en:Chapter.13
01:03:39.232 : en:Chapter.14
01:07:53.778 : en:Chapter.15
01:14:51.737 : en:Chapter.16

Свернуть
"Знаете ли Вы, что..."
  • Фильм снимался в Гранд-Рапидс, штат Мичиган.
Свернуть
Скриншоты
Изображение

Изображение

Изображение
Свернуть
Не в сети
Профиль  
 Добавлено: 2011-11-05 09:05 (спустя 7 часов)
Аватара пользователя
Стаж: 7 лет 2 месяца
Сообщений: 7167
Спасибок: 82014
Лайков: 2438
Насыпь риповок что-ли?
Не в сети
Профиль  
 Добавлено: 2011-11-05 09:49 (спустя 44 минуты)
Top-releaser
Стаж: 7 лет 4 месяца
Возраст: 33
Сообщений: 409
Спасибок: 6402
Лайков: 6
Рипы уже есть на трекере!
Не в сети
Профиль  
 Добавлено: 2011-11-05 09:55 (спустя 6 минут)
Аватара пользователя
Стаж: 7 лет 2 месяца
Сообщений: 7167
Спасибок: 82014
Лайков: 2438

balaganin:

Рипы уже есть на трекере!

Ок пошарюсь!
Не в сети
Профиль  
 Добавлено: 2011-11-17 22:19 (спустя 12 дней)
Стаж: 6 лет 1 месяц
Сообщений: 84
Эх... Брюлик бы, или Remux...
Не в сети
Профиль  
 Добавлено: 2011-11-18 01:42 (спустя 3 часа)
Стаж: 6 лет
Сообщений: 2
фильм говно
Не в сети
Профиль  
 Добавлено: 2011-11-26 23:45 (спустя 8 дней)
Аватара пользователя
Стаж: 7 лет 11 месяцев
Возраст: 26
Сообщений: 735
Спасибок: 694
Лайков: 3
Мат запикан? Сабы зацензурены?
_________________
Не можешь взять аргументами? До##ись до орфографии!
Изображение
Не в сети
Профиль  
Начать новую темуОтветить на тему  [ Сообщений: 7 ] 
Вы не можете начинать темы
Вы не можете отвечать на сообщения
Вы не можете редактировать свои сообщения
Вы не можете удалять свои сообщения