Правила форума

  • В этом разделе создание новых тем Запрещено.
  • Для создания новых тем пользуйтесь Корневым разделом DVD и HD фильмы.
Начать новую темуОтветить на тему  [ 1 сообщение ] 
Торрент файл
Размер: 8.12 GB • Зарегистрирован: 4 года 3 месяца • Статус: Проверено
Скачан: 70 раз • Желающих скачать: 0 • Поблагодарили: 17 раз
 Раздают: 0  |  0 KB/s  ]   Качают: 0  |  0 KB/s  ] 
 Полного источника не было 1 год 7 месяцев 
Сообщения
 Добавлено: 2012-08-25 19:51
Модератор релиз-группы
Аватара пользователя
Стаж: 9 лет 1 месяц
Возраст: 97
Сообщений: 11659
Спасибок: 6532
Лайков: 269
Узник / One in the Chamber
«When killers collide, every bullet counts.»

Изображение

Год выпуска: 2012
Страна: США
Жанр: боевик, триллер, криминал
Продолжительность: 01:31:06
Перевод: Профессиональный Двухголосый
Одноголосый закадровый (Андрей Дольский)
Оригинальная звуковая дорожка
Субтитры: Английские
Режиссер: Уильям Кауфман

В ролях: Дольф Лундгрен, Кьюба Гудинг мл., Лео Грегори, Билли Мюррэй, Клаудия Бассолс, Луис Мэндилор (Demyan Ivanov), Lia Sinchevici (Mila), Эндрю Бикнелл, Аарон МакФерсон, Элин Пэнк, Джимми Таунсенд

Описание: Профессиональный наёмный убийца во время смертельной схватки с мафией оказывается целью преследования неизвестного опасного врага.
Изображение
Качество : BDRip 1080p
Формат: MKV
Видеокодек: MPEG-4 AVC/H.264
Аудиокодек: AC-3,
Видео: 1920x1080, 23.976 fps, ~11,3 mb/s
Аудио 1: Русский, AC-3, 384 kbps, 6 каналов, 16 bit, (L, C, R, l, r) + LFE - Двухголосый
Аудио 2: Русский, AC-3, 192 kbps, 2 канала, 16 bit, (L, R) - Одноголосый закадровый (Андрей Дольский)
Аудио 3: Английский, AC-3, 640 kbps, 6 каналов, (L, C, R, l, r) + LFE - Оригинал
скриншоты
Изображение

Изображение

Изображение
Свернуть
Mi
Формат : Matroska
Версия формата : Version 1
Размер файла : 8,12 Гбайт
Продолжительность : 1 ч. 31 м.
Общий поток : 12,8 Мбит/сек
Название фильма : Узник / One in the Chamber
Дата кодирования : UTC 2012-08-13 22:35:31
Программа кодирования : mkvmerge v2.1.0 ('Another Place To Fall') built on Aug 19 2007 13:40:07
Библиотека кодирования : libebml v0.7.7 + libmatroska v0.8.1

Видео
Идентификатор : 1
Формат : AVC
Формат/Информация : Advanced Video Codec
Профиль формата : High@L4.1
Параметр CABAC формата : Да
Параметр ReFrames формата : 4 кадра
Идентификатор кодека : V_MPEG4/ISO/AVC
Продолжительность : 1 ч. 31 м.
Битрейт : 11,3 Мбит/сек
Ширина : 1920 пикселей
Высота : 1080 пикселей
Соотношение сторон : 16:9
Частота кадров : 23,976 кадра/сек
Цветовое пространство : YUV
Субдискретизация насыщенности : 4:2:0
Битовая глубина : 8 бит
Тип развёртки : Прогрессивная
Бит/(Пиксели*Кадры) : 0.227
Размер потока : 7,19 Гбайт (88%)
Заголовок : Узник / One in the Chamber
Библиотека кодирования : x264 core 125 r2208 d9d2288
Настройки программы : cabac=1 / ref=4 / deblock=1:-3:-3 / analyse=0x3:0x113 / me=umh / subme=10 / psy=1 / psy_rd=1.10:0.00 / mixed_ref=1 / me_range=32 / chroma_me=1 / trellis=2 / 8x8dct=1 / cqm=0 / deadzone=21,11 / fast_pskip=0 / chroma_qp_offset=-4 / threads=9 / lookahead_threads=1 / sliced_threads=0 / nr=0 / decimate=0 / interlaced=0 / bluray_compat=0 / constrained_intra=0 / bframes=5 / b_pyramid=2 / b_adapt=2 / b_bias=0 / direct=3 / weightb=1 / open_gop=0 / weightp=2 / keyint=250 / keyint_min=23 / scenecut=40 / intra_refresh=0 / rc_lookahead=40 / rc=crf / mbtree=0 / crf=18.5 / qcomp=0.70 / qpmin=0 / qpmax=69 / qpstep=4 / vbv_maxrate=40000 / vbv_bufsize=40000 / crf_max=0.0 / nal_hrd=none / ip_ratio=1.40 / pb_ratio=1.30 / aq=1:0.80
Язык : English
Default : Да
Forced : Нет

Аудио #1
Идентификатор : 2
Формат : AC-3
Формат/Информация : Audio Coding 3
Расширение режима : CM (complete main)
Идентификатор кодека : A_AC3
Продолжительность : 1 ч. 31 м.
Вид битрейта : Постоянный
Битрейт : 384 Кбит/сек
Каналы : 6 каналов
Расположение каналов : Front: L C R, Side: L R, LFE
Частота : 48,0 КГц
Битовая глубина : 16 бит
Метод сжатия : С потерями
Размер потока : 250 Мбайт (3%)
Заголовок : Профессиональный двухголосый
Язык : Russian
Default : Да
Forced : Нет

Аудио #2
Идентификатор : 3
Формат : AC-3
Формат/Информация : Audio Coding 3
Расширение режима : CM (complete main)
Идентификатор кодека : A_AC3
Продолжительность : 1 ч. 31 м.
Вид битрейта : Постоянный
Битрейт : 192 Кбит/сек
Каналы : 2 канала
Расположение каналов : Front: L R
Частота : 48,0 КГц
Битовая глубина : 16 бит
Метод сжатия : С потерями
Размер потока : 125 Мбайт (2%)
Заголовок : Андрей Дольский
Язык : Russian
Default : Нет
Forced : Нет

Аудио #3
Идентификатор : 4
Формат : AC-3
Формат/Информация : Audio Coding 3
Расширение режима : CM (complete main)
Идентификатор кодека : A_AC3
Продолжительность : 1 ч. 31 м.
Вид битрейта : Постоянный
Битрейт : 640 Кбит/сек
Каналы : 6 каналов
Расположение каналов : Front: L C R, Side: L R, LFE
Частота : 48,0 КГц
Битовая глубина : 16 бит
Метод сжатия : С потерями
Размер потока : 417 Мбайт (5%)
Заголовок : DD 5.1 @ 640 kbps
Язык : English
Default : Нет
Forced : Нет

Текст
Идентификатор : 5
Формат : UTF-8
Идентификатор кодека : S_TEXT/UTF8
Идентификатор кодека/Информация : UTF-8 Plain Text
Язык : English
Default : Да
Forced : Нет
[свернуть]

Свернуть
_________________
Изображение
Не в сети
Профиль  
Начать новую темуОтветить на тему  [ 1 сообщение ] 
Вы не можете начинать темы
Вы не можете отвечать на сообщения
Вы не можете редактировать свои сообщения
Вы не можете удалять свои сообщения