Правила форума

  • В этом разделе создание новых тем Запрещено.
  • Для создания новых тем пользуйтесь Корневым разделом DVD и HD фильмы.
Начать новую темуОтветить на тему  [ Сообщений: 3 ] 
Торрент файл
Размер: 7.95 GB • Зарегистрирован: 4 года 9 месяцев • Статус: Проверено
Скачан: 112 раз • Желающих скачать: 0 • Поблагодарили: 29 раз
 Раздают: 0  |  0 KB/s  ]   Качают: 0  |  0 KB/s  ] 
 Полного источника не было 2 дня 7 часов 
Сообщения
 Добавлено: 2012-02-20 20:44
Руководитель релиз-группы
Аватара пользователя
Стаж: 9 лет 1 месяц
Возраст: 28
Сообщений: 4244
Спасибок: 31989
Лайков: 32
Изображение
В диких условиях / Into the Wild


«Your large adventure on Alaska.»

Год выпуска | 2007
Страна | США
Жанр | драма ∙ приключения ∙ биография
Продолжительность | 02:28:07
Перевод | Профессиональный (многоголосый, закадровый) /НТВ+/ ∙ Авторский (Немахов Юрий) ∙ Оригинальный ∙ Субтитры (русские, английские)


Режиссер | Шон Пенн
Сценарий | Шон Пенн ∙ Джон Кракауер
Продюсер | Арт Линсон ∙ Шон Пенн ∙ Уильям Полад ∙ Дэвид Блокер ∙ Фрэнк Хилдебранд
Оператор | Эрик Готье
Композитор | Майкл Брук ∙ Кэйки Кинг ∙ Эдди Веддер

В ролях | Эмиль Хирш (Chris McCandless) ∙ Хэл Холбрук (Ron Franz) ∙ Марша Гэй Харден (Billie McCandless) ∙ Уильям Хёрт (Walt McCandless) ∙ Джена Мэлоун (Carine McCandless / Additional рассказчик) ∙ Брайан Х. Дьеркер (Rainey) ∙ Кэтрин Кинер (Jan Burres) ∙ Винс Вон (Wayne Westerberg) ∙ Кристен Стюарт (Tracy Tatro) ∙ Джим Галиен (играет самого себя) ∙ Джеймс О’Нейлл (Graduation Reader) ∙ Малинда МакКолам (Waitress)


Описание | После окончания колледжа Эмори один из его ведущих студентов и атлетов Кристофер МакКэндлесс оставляет все свое имущество, отдает накопленные за время учебы 24 тыс. долларов в благотворительный фонд, и отправляется автостопом на Аляску, чтобы окунуться в дикую природу. По дороге Кристофер знакомится с разными людьми, так или иначе влияющими на его жизнь.


Релиз | ИзображениеРаздача | Изображение


kinopoisk.ru | 8.159 (31 349)


Бюджет | $15 000 000
Сборы в США | $18 354 356
Сборы в мире | $56 255 142
Мировая премьера | 1 сентября 2007


Знаете ли Вы, что...
  • Чтобы исполнить главную роль в фильме, Эмиль Хирш потерял 40 фунтов своего веса.
  • Изначально, роль Кристофера МакКэндлесса должна была достаться Леонардо Ди Каприо.
  • По словам самого Шона Пена, он шел к съемкам этого фильма почти десять лет. Книгу Крэкауэра он прочитал за одну ночь в 1996 году, после чего немедленно приступил к переговорам с родителями Маккендлисса об ее экранизации. Однако, когда все уже было готово к съемкам, родители отказались.
  • Первая картина режиссёра Шона Пенна, где не сыграла его супруга Робин Райт Пенн.
  • Когда Шон Пенн впервые загорелся желанием сделать этот фильм (а это случилось сразу, как только он прочел книгу Джона Кракауэра, вышедшую в 1996 году), в роли МакКэндлесса он видел Леонардо ДиКаприо, а в роли Рона Франца — Марлона Брандо.
  • Фильм полностью снят на реальных локациях, то есть, там, где жил и страдал МакЭндлесс. Съемочной группе приходилось ездить на Аляску 4 раза, чтобы захватить все времена года.
  • Лось, которого в фильме убил Кристофер, на самом деле был найден мертвым на Аляске.
  • Дэйви Чейз прослушивалась на роль Трейси, но не получила её.
  • Сцена, когда к Крису подходит медведь, но Крис на него не реагирует и медведь уходит, отсылает нас прямиком к рассказу Джека Лондона «Любовь к жизни», где была описана точно такая же ситуация.
Свернуть


Качество | BDRip 720p
Формат | Matroska
Видео | AVC ∙ 1280x534 ∙ 5933 kbps ∙ 23.976 fps ∙ 0.362 bit/pixel
Аудио #1 | AC3 ∙ 320 kbps ∙ CBR ∙ 2 channels ∙ 16 bit /MVO/
Аудио #2 | AC3 ∙ 640 kbps ∙ CBR ∙ 6 channels ∙ 16 bit /AVO/
Аудио #3 | AC3 ∙ 640 kbps ∙ CBR ∙ 6 channels ∙ 16 bit /ENG/

MediaInfo
General
Unique ID : 212170791017664919219192163266405370552 (0x9F9E9BA437EC7D6B9473299023E48AB8)
Complete name : J:\films\Into.the.Wild.2007.BDRip.720p[R.G.KiNOvNiNO].mkv
Format : Matroska
File size : 7.95 GiB
Duration : 2h 28mn
Overall bit rate : 7 686 Kbps
Movie name : Into the Wild (2007) - Release for HDCLUB by Skazhutin
Encoded date : UTC 2012-02-20 08:37:15
Writing application : mkvmerge v5.3.0 ('I could have danced') built on Feb 9 2012 10:38:07
Writing library : libebml v1.2.3 + libmatroska v1.3.0
Cover : Yes / Yes

Video
ID : 1
Format : AVC
Format/Info : Advanced Video Codec
Format profile : High@L4.1
Format settings, CABAC : Yes
Format settings, ReFrames : 11 frames
Codec ID : V_MPEG4/ISO/AVC
Duration : 2h 28mn
Bit rate : 5 933 Kbps
Width : 1 280 pixels
Height : 534 pixels
Display aspect ratio : 2.35:1
Frame rate : 23.976 fps
Color space : YUV
Chroma subsampling : 4:2:0
Bit depth : 8 bits
Scan type : Progressive
Bits/(Pixel*Frame) : 0.362
Stream size : 6.14 GiB (77%)
Title : Release for HDCLUB
Writing library : x264 core 120 r2164 da19765
Encoding settings : cabac=1 / ref=11 / deblock=1:-3:-3 / analyse=0x3:0x113 / me=umh / subme=11 / psy=1 / psy_rd=0.85:0.00 / mixed_ref=1 / me_range=48 / chroma_me=1 / trellis=2 / 8x8dct=1 / cqm=0 / deadzone=21,11 / fast_pskip=1 / chroma_qp_offset=-2 / threads=12 / sliced_threads=0 / nr=0 / decimate=1 / interlaced=0 / bluray_compat=0 / constrained_intra=0 / bframes=12 / b_pyramid=2 / b_adapt=2 / b_bias=0 / direct=1 / weightb=1 / open_gop=0 / weightp=2 / keyint=250 / keyint_min=23 / scenecut=40 / intra_refresh=0 / rc_lookahead=40 / rc=crf / mbtree=0 / crf=17.2 / qcomp=0.60 / qpmin=0 / qpmax=69 / qpstep=4 / vbv_maxrate=50000 / vbv_bufsize=62500 / crf_max=0.0 / nal_hrd=none / ip_ratio=1.40 / pb_ratio=1.30 / aq=2:0.70
Language : English
Matrix coefficients : BT.709-5, BT.1361, IEC 61966-2-4 709, SMPTE RP177

Audio #1
ID : 2
Format : AC-3
Format/Info : Audio Coding 3
Mode extension : CM (complete main)
Codec ID : A_AC3
Duration : 2h 28mn
Bit rate mode : Constant
Bit rate : 320 Kbps
Channel(s) : 2 channels
Channel positions : Front: L R
Sampling rate : 48.0 KHz
Bit depth : 16 bits
Compression mode : Lossy
Stream size : 339 MiB (4%)
Title : AC3 2.0 @ 320 kbps - Многоголосный, НТВ+
Language : Russian

Audio #2
ID : 3
Format : AC-3
Format/Info : Audio Coding 3
Mode extension : CM (complete main)
Codec ID : A_AC3
Duration : 2h 28mn
Bit rate mode : Constant
Bit rate : 640 Kbps
Channel(s) : 6 channels
Channel positions : Front: L C R, Side: L R, LFE
Sampling rate : 48.0 KHz
Bit depth : 16 bits
Compression mode : Lossy
Stream size : 678 MiB (8%)
Title : AC3 5.1 @ 640 kbps - Одноголосный, Ю. Немахов
Language : Russian

Audio #3
ID : 4
Format : AC-3
Format/Info : Audio Coding 3
Mode extension : CM (complete main)
Codec ID : A_AC3
Duration : 2h 28mn
Bit rate mode : Constant
Bit rate : 640 Kbps
Channel(s) : 6 channels
Channel positions : Front: L C R, Side: L R, LFE
Sampling rate : 48.0 KHz
Bit depth : 16 bits
Compression mode : Lossy
Stream size : 678 MiB (8%)
Title : AC3 5.1 @ 640 kbps
Language : English

Text #1
ID : 5
Format : UTF-8
Codec ID : S_TEXT/UTF8
Codec ID/Info : UTF-8 Plain Text
Language : Russian

Text #2
ID : 6
Format : UTF-8
Codec ID : S_TEXT/UTF8
Codec ID/Info : UTF-8 Plain Text
Title : SDH
Language : English

Text #3
ID : 7
Format : UTF-8
Codec ID : S_TEXT/UTF8
Codec ID/Info : UTF-8 Plain Text
Language : English

Menu
00:00:00.000 : en:Chapter 1
00:08:24.504 : en:Chapter 2
00:13:55.752 : en:Chapter 3
00:21:46.639 : en:Chapter 4
00:28:53.148 : en:Chapter 5
00:38:16.544 : en:Chapter 6
00:48:56.267 : en:Chapter 7
00:56:24.923 : en:Chapter 8
01:08:16.217 : en:Chapter 9
01:18:40.841 : en:Chapter 10
01:30:26.004 : en:Chapter 11
01:39:51.903 : en:Chapter 12
01:47:45.876 : en:Chapter 13
01:51:51.955 : en:Chapter 14
02:04:30.421 : en:Chapter 15
02:13:14.445 : en:Chapter 16
Свернуть


Скриншоты


Изображение


Изображение


Изображение


Свернуть
_________________
«you failed because you had the wrong dream...»
Не в сети
Профиль  
 Добавлено: 2015-02-03 00:13 (спустя 2 года 11 месяцев)
Кинокомментатор
Аватара пользователя
Стаж: 9 лет
Сообщений: 1331
Лайков: 52
классное кино! которое точно стоит посмотреть! путешествия, свобода, жизнь, смерть... кино не простое, но очень и очень готово к просмотру! 8/10
_________________
Я ВКонтакте
Не в сети
Профиль  
 Добавлено: 2015-02-28 16:43 (спустя 25 дней)
Аватара пользователя
Стаж: 8 лет 1 месяц
Сообщений: 23
Спасибок: 1
отличное кино-стоит посмотреть тем кто любит путешествия!
Не в сети
Профиль  
Начать новую темуОтветить на тему  [ Сообщений: 3 ] 
Вы не можете начинать темы
Вы не можете отвечать на сообщения
Вы не можете редактировать свои сообщения
Вы не можете удалять свои сообщения