Правила форума

  • В этом разделе создание новых тем Запрещено.
  • Для создания новых тем пользуйтесь Корневым разделом DVD и HD фильмы.
Начать новую темуОтветить на тему  [ Сообщений: 7 ] 
Торрент файл
Размер: 7.93 GB • Зарегистрирован: 3 года 9 месяцев • Статус: Проверено
Скачан: 138 раз • Желающих скачать: 0 • Поблагодарили: 48 раз
 Раздают: 0  |  0 KB/s  ]   Качают: 0  |  0 KB/s  ] 
 Полного источника не было 2 года 1 месяц 
Сообщения
 Добавлено: 2013-02-23 22:45
Аватара пользователя
Стаж: 5 лет 4 месяца
Возраст: 26
Сообщений: 1658
Спасибок: 45808
Лайков: 69
В доме / Dans la maison


«Думаешь, за тобой не интересно подсматривать?»


Изображение
Год выпуска: 2012
Страна: Изображение
Жанр: Триллер, детектив
Продолжительность: 01:45:10
Перевод: Дублированный (Лицензия)

Режиссёр: Франсуа Озон

Сценарий: Хуан Майорга, Франсуа Озон

Продюсер: Эрик Альтмайер, Николас Альтмайер, Клоди Оссар

Оператор: Жером Альмерас

Композитор: Филипп Ромби

Xудожник: Паскаль Легеллек, Паскалин Шаванн

В ролях: Фабрис Лукини, Эрнст Умоер , Кристин Скотт Томас, Эмманюэль Сенье, Дени Меноше, Бастьен Угетто, Жан-Франсуа Балмер, Иоланда Моро, Катрин Давенье, Винсент Шмитт .


Описание: Разочаровавшись в своих учениках, учитель благоволит лишь мальчику, сидящему на последней парте и сильно выделяющемуся на фоне остальных. Этот ребенок имеет склонность к подглядыванию и однажды решает написать рассказ о семье своего одноклассника, за которой имеет возможность систематически наблюдать.


Изображение



Бюджет: €60 00
Сборы в России: $255 000

Мировая премьера:10 сентября 2012
Российский прокат:25 октября 2012, «Централ Партнершип»

Релиз на DVD:26 февраля 2013, «Парадиз Медиа».
Релиз на Blu-Ray:26 февраля 2013, «Парадиз Медиа».

Качество: BDRip (1080p)
Формат: MKV
Видео: MPEG-4 AVC, 8901 Кбит/с, 1920x1040, 24.000 кадр/с
Аудио: Русский (AC3, 6 ch, 384 Кбит/с), французский (DTS, 6 ch, 1510 Кбит/с)




MediaInfo
Общее
Уникальный идентификатор : 238797160032407082252693937351013453678 (0xB3A6A8FD3CE9DE4988A1B56424384F6E)
Полное имя : D:\Фильмы и сериалы\V.Dome.2012.BDRip.1080p.mkv
Формат : Matroska
Версия формата : Version 4 / Version 2
Размер файла : 7,93 Гбайт
Продолжительность : 1 ч. 45 м.
Общий поток : 10,8 Мбит/сек
Дата кодирования : UTC 2013-02-23 07:29:34
Программа кодирования : mkvmerge v6.0.0 ('Coming Up For Air') built on Jan 20 2013 09:52:00
Библиотека кодирования : libebml v1.3.0 + libmatroska v1.4.0

Видео
Идентификатор : 1
Формат : AVC
Формат/Информация : Advanced Video Codec
Профиль формата : High@L4.1
Параметр CABAC формата : Да
Параметр ReFrames формата : 4 кадра
Идентификатор кодека : V_MPEG4/ISO/AVC
Продолжительность : 1 ч. 45 м.
Битрейт : 8901 Кбит/сек
Ширина : 1920 пикселей
Высота : 1040 пикселей
Соотношение сторон : 1,85:1
Режим частоты кадров : Постоянный
Частота кадров : 24,000 кадра/сек
Цветовое пространство : YUV
Субдискретизация насыщенности : 4:2:0
Битовая глубина : 8 бит
Тип развёртки : Прогрессивная
Бит/(Пиксели*Кадры) : 0.186
Размер потока : 6,38 Гбайт (80%)
Библиотека кодирования : x264 core 129 r2245 bc13772
Настройки программы : cabac=1 / ref=4 / deblock=1:0:0 / analyse=0x3:0x133 / me=umh / subme=7 / psy=1 / psy_rd=1.00:0.00 / mixed_ref=1 / me_range=16 / chroma_me=1 / trellis=1 / 8x8dct=1 / cqm=0 / deadzone=21,11 / fast_pskip=0 / chroma_qp_offset=-2 / threads=24 / lookahead_threads=4 / sliced_threads=0 / nr=0 / decimate=1 / interlaced=0 / bluray_compat=0 / constrained_intra=0 / bframes=3 / b_pyramid=2 / b_adapt=1 / b_bias=0 / direct=1 / weightb=1 / open_gop=0 / weightp=2 / keyint=250 / keyint_min=24 / scenecut=40 / intra_refresh=0 / rc=2pass / mbtree=0 / bitrate=8901 / ratetol=1.0 / qcomp=0.60 / qpmin=0 / qpmax=69 / qpstep=4 / cplxblur=20.0 / qblur=0.5 / ip_ratio=1.40 / pb_ratio=1.30 / aq=1:1.00
Язык : English
Default : Нет
Forced : Нет

Аудио #1
Идентификатор : 2
Формат : AC-3
Формат/Информация : Audio Coding 3
Расширение режима : CM (complete main)
Параметр Endianness формата : Big
Идентификатор кодека : A_AC3
Продолжительность : 1 ч. 45 м.
Вид битрейта : Постоянный
Битрейт : 384 Кбит/сек
Каналы : 6 каналов
Расположение каналов : Front: L C R, Side: L R, LFE
Частота : 48,0 КГц
Битовая глубина : 16 бит
Метод сжатия : С потерями
Размер потока : 289 Мбайт (4%)
Язык : Russian
Default : Да
Forced : Нет

Аудио #2
Идентификатор : 3
Формат : DTS
Формат/Информация : Digital Theater Systems
Режим : 16
Параметр Endianness формата : Big
Идентификатор кодека : A_DTS
Продолжительность : 1 ч. 45 м.
Вид битрейта : Постоянный
Битрейт : 1510 Кбит/сек
Каналы : 6 каналов
Расположение каналов : Front: L C R, Side: L R, LFE
Частота : 48,0 КГц
Битовая глубина : 24 бит
Метод сжатия : С потерями
Размер потока : 1,11 Гбайт (14%)
Заголовок : french
Язык : French
Default : Нет
Forced : Нет

Текст
Идентификатор : 4
Формат : UTF-8
Идентификатор кодека : S_TEXT/UTF8
Идентификатор кодека/Информация : UTF-8 Plain Text
Язык : Russian
Default : Нет
Forced : Нет



Свернуть

Трейлер
Свернуть

Скриншоты
Изображение
Изображение
Изображение
Свернуть
_________________
S.T.A.L.K.E.R.: Lost Alpha
Не в сети
Профиль  
 Добавлено: 2013-02-24 08:52 (спустя 10 часов)
Кинокомментатор
Аватара пользователя
Стаж: 9 лет 1 месяц
Сообщений: 1332
Лайков: 54
ну и как скачать!?(
Не в сети
Профиль  
 Добавлено: 2013-02-24 11:47 (спустя 2 часа 55 минут)
Аватара пользователя
Стаж: 5 лет 4 месяца
Возраст: 26
Сообщений: 1658
Спасибок: 45808
Лайков: 69
Bronks
Стаж: 5 лет 3 месяца :sh_ok:
Скачать торрент :ti_pa:
_________________
S.T.A.L.K.E.R.: Lost Alpha
Не в сети
Профиль  
 Добавлено: 2013-02-25 18:18 (спустя 1 день 6 часов)
Кинокомментатор
Аватара пользователя
Стаж: 9 лет 1 месяц
Сообщений: 1332
Лайков: 54
R.G. Механики
как там.... кхе кхе... "Казнить нельзя помиловать!" расставьте запятые, там где на ваш взгляд они пропущены;)

Откуда: Кулебаки ... ничё се)) может даже и виделись:) но это офтоп) как кино то!? понравилось?
_________________
Я ВКонтакте
Не в сети
Профиль  
 Добавлено: 2013-02-25 18:37 (спустя 19 минут)
Кинокомментатор
Аватара пользователя
Стаж: 9 лет 1 месяц
Сообщений: 1332
Лайков: 54
продолжение следует... на месте встрече двух психов, как принимает их общество... или двух творцов, как принимает их история!
ох уж эти скучающие женщины) пальцем молодым их только помани...)))
перекликается сюжетец с Лолитой, Набокова... но как то наоборот) Клоду(гл.герою) скорее интересно, что будет дальше, а не сам процесс... эх) есть в этом всё же, что то мужское, во фразе "следующая, покажите всех пожалуйста!"... но фильм о другом, вообще фильм другой! люблю такие фильмы, много всего, но нет банальщины, разве что выпяченный подростковый поцелуй...


В этом кино не стреляю, не гоняют, не шпилят молодых тёлочек) тут жизнь и женщины постарше, их вкус, суть и соль... если можно так сказать...
Смотреть ли это кино!? ну вы уже должны определиться какое кино нравится вам!? подумать на опасные темы - вам сюда;) посмотреть что то лёгкое и не принуждённое - мимо)
фильму легко 8/10 хорошее, сочное, Французское кино!) есть у меня к ним какое то уважение что ли)) думают люди) хотя бы задумываются...
_________________
Я ВКонтакте
Не в сети
Профиль  
 Добавлено: 2013-02-25 19:38 (спустя 1 час)
Аватара пользователя
Стаж: 5 лет 4 месяца
Возраст: 26
Сообщений: 1658
Спасибок: 45808
Лайков: 69
Bronks
Французы умеют радовать годно для просмотра :co_ol:
_________________
S.T.A.L.K.E.R.: Lost Alpha
Не в сети
Профиль  
 Добавлено: 2013-02-27 20:10 (спустя 2 дня)
Аватара пользователя
Стаж: 8 лет 5 месяцев
Сообщений: 112
Спасибок: 398
Извините но французы... вы так выразились что все французы умеют делать кино, не соглашусь! А вот Франсуа Озон, с его "Крысятник" "Пианистка" "8 женщин" итп. умеет шокировать, с удовольствие посмотрю это кино
Не в сети
Профиль  
Начать новую темуОтветить на тему  [ Сообщений: 7 ] 
Вы не можете начинать темы
Вы не можете отвечать на сообщения
Вы не можете редактировать свои сообщения
Вы не можете удалять свои сообщения