Правила форума

  • В этом разделе создание новых тем Запрещено.
  • Для создания новых тем пользуйтесь Корневым разделом DVD и HD фильмы.
Начать новую темуОтветить на тему  [ Сообщений: 4 ] 
Торрент файл
Размер: 8.18 GB • Зарегистрирован: 4 года • Статус: Проверено
Скачан: 60 раз • Желающих скачать: 0 • Поблагодарили: 10 раз
 Раздают: 0  |  0 KB/s  ]   Качают: 0  |  0 KB/s  ] 
 Полного источника не было 2 года 5 месяцев 
Сообщения
 Добавлено: 2012-11-05 12:55
Модератор
Аватара пользователя
Стаж: 9 лет
Сообщений: 3446
Спасибок: 1556
Лайков: 77
В доме отца / Casa de mi Padre

Изображение


Год выпуска: 2012
Страна: США
Жанр: Комедия
Продолжительность: 01:24:27
Перевод: Профессиональный (дубляж) + Оригинальная звуковая дорожка
Субтитры: Русские, Английские

Режиссёр: Мэтт Пидмонт
В ролях: Уилл Феррелл, Хенесис Родригес, Эфрен Рамирес, Диего Луна, Ник Оффермэн, Эдриан Мартинес, Педро Армендарис мл., Алехандро Патино
Описание: Мексика. Зной. Кактусы. Когда старший брат, Армандо, готов был уже удавиться, разгребая старые долги отца, объявляется младший, преуспевающий в сомнительном промысле, Рауль. Приезжает он не один, а с красоткой невестой, в которую тут же влюбляется Армандо. Кровь кипит, а бизнес рушится. Но кромешный ад начинается, когда братья, сами того не желая, встают на пути самого опасного человека в стране, могущественного наркобарона Онзы...


MediaInfo:
General
Unique ID : 225568276495028579781294245952501085409 (0xA9B2DEAC8F68747E8916734DE76074E1)
Format : Matroska
Format version : Version 2
File size : 8.18 GiB
Duration : 1h 24mn
Overall bit rate : 13.9 Mbps
Movie name : --SCHUMAHER--
Encoded date : UTC 2012-07-11 17:58:29
Writing application : mkvmerge v5.7.0 ('The Whirlwind') built on Jul 8 2012 20:08:51
Writing library : libebml v1.2.3 + libmatroska v1.3.0

Video
ID : 1
Format : AVC
Format/Info : Advanced Video Codec
Format profile : High@L4.1
Format settings, CABAC : Yes
Format settings, ReFrames : 5 frames
Codec ID : V_MPEG4/ISO/AVC
Duration : 1h 24mn
Bit rate : 12.0 Mbps
Width : 1 920 pixels
Height : 818 pixels
Display aspect ratio : 2.35:1
Frame rate : 23.976 fps
Color space : YUV
Chroma subsampling : 4:2:0
Bit depth : 8 bits
Scan type : Progressive
Bits/(Pixel*Frame) : 0.318
Stream size : 6.90 GiB (84%)
Writing library : x264 core 125 r2200 999b753
Encoding settings : cabac=1 / ref=5 / deblock=1:-3:-3 / analyse=0x3:0x133 / me=umh / subme=10 / psy=1 / psy_rd=1.00:0.00 / mixed_ref=1 / me_range=48 / chroma_me=1 / trellis=2 / 8x8dct=1 / cqm=0 / deadzone=21,11 / fast_pskip=1 / chroma_qp_offset=-2 / threads=12 / lookahead_threads=2 / sliced_threads=0 / nr=0 / decimate=0 / interlaced=0 / bluray_compat=0 / constrained_intra=0 / bframes=7 / b_pyramid=2 / b_adapt=2 / b_bias=0 / direct=3 / weightb=1 / open_gop=0 / weightp=2 / keyint=250 / keyint_min=23 / scenecut=40 / intra_refresh=0 / rc_lookahead=200 / rc=2pass / mbtree=1 / bitrate=11971 / ratetol=1.0 / qcomp=0.60 / qpmin=0 / qpmax=69 / qpstep=4 / cplxblur=20.0 / qblur=0.5 / vbv_maxrate=30000 / vbv_bufsize=30000 / nal_hrd=none / ip_ratio=1.50 / aq=1:1.00
Language : Spanish
Default : Yes
Forced : Yes

Audio #1
ID : 2
Format : AC-3
Format/Info : Audio Coding 3
Mode extension : CM (complete main)
Format settings, Endianness : Big
Codec ID : A_AC3
Duration : 1h 24mn
Bit rate mode : Constant
Bit rate : 384 Kbps
Channel(s) : 6 channels
Channel positions : Front: L C R, Side: L R, LFE
Sampling rate : 48.0 KHz
Bit depth : 16 bits
Compression mode : Lossy
Stream size : 232 MiB (3%)
Language : Russian
Default : Yes
Forced : Yes

Audio #2
ID : 3
Format : DTS
Format/Info : Digital Theater Systems
Codec ID : A_DTS
Duration : 1h 24mn
Bit rate mode : Constant
Bit rate : 1 510 Kbps
Channel(s) : 6 channels
Channel positions : Front: L C R, Side: L R, LFE
Sampling rate : 48.0 KHz
Bit depth : 24 bits
Compression mode : Lossy
Stream size : 912 MiB (11%)
Language : Spanish
Default : No
Forced : No

Text #1
ID : 4
Format : UTF-8
Codec ID : S_TEXT/UTF8
Codec ID/Info : UTF-8 Plain Text
Language : Russian
Default : No
Forced : No

Text #2
ID : 5
Format : UTF-8
Codec ID : S_TEXT/UTF8
Codec ID/Info : UTF-8 Plain Text
Language : English
Default : No
Forced : No
Свернуть

Качество: BDRip 1080p
Формат: MKV
Видео кодек: MPEG-4 AVC
Аудио кодек: AC3, DTS
Видео: MPEG-4 AVC, 1920x818, 23.976 fps, ~12,0 Mbps
Аудио #1: AC3, 48 kHz, 6 ch, ~384 kbps[Russian] [Профессиональный (дубляж)]
Аудио #2: DTS, 48 kHz, 6 ch, ~1510 kbps[Spanish] [Оригинальная звуковая дорожка]
Субтитры: Русские, Английские
Скриншоты
Изображение
Изображение
Изображение
Свернуть
_________________
Пока тут пусто.
Не в сети
Профиль  
 Добавлено: 2012-11-05 21:52 (спустя 8 часов)
Стаж: 5 лет 3 месяца
Сообщений: 150
Лайков: 1
Мдаааа!!!Юмор на любителя.Для такого шлака 1:24:27 уж слишком долго!Я не досмотрел!
Не в сети
Профиль  
 Добавлено: 2012-11-07 00:29 (спустя 1 день 2 часа)
Стаж: 8 лет 10 месяцев
Сообщений: 6
Наконец то дождался в качестве... скачаю третий раз посмотрю
Не в сети
Профиль  
 Добавлено: 2012-11-07 20:41 (спустя 20 часов)
Стаж: 6 лет 2 месяца
Сообщений: 15
вот и догадайся!
В сети
Профиль  
Начать новую темуОтветить на тему  [ Сообщений: 4 ] 
Вы не можете начинать темы
Вы не можете отвечать на сообщения
Вы не можете редактировать свои сообщения
Вы не можете удалять свои сообщения