Правила форума

  • В этом разделе создание новых тем Запрещено.
  • Для создания новых тем пользуйтесь Корневым разделом DVD и HD фильмы.
Начать новую темуОтветить на тему  [ Сообщений: 2 ] 
Торрент файл
Размер: 9.52 GB • Зарегистрирован: 5 лет 2 месяца • Статус: Проверено
Скачан: 182 раза • Желающих скачать: 0 • Поблагодарили: 20 раз
 Раздают: 0  |  0 KB/s  ]   Качают: 0  |  0 KB/s  ] 
 Полного источника не было 3 года 2 месяца 
Сообщения
 Добавлено: 2011-09-21 05:19
Top-releaser
Аватара пользователя
Стаж: 7 лет 3 месяца
Возраст: 25
Сообщений: 1036
Спасибок: 2694
Лайков: 9
В упор / А bout portant

Изображение



Год выхода: 2010
Страна: Франция

Жанр: боевик, триллер, криминал
Продолжительность: 01:24:01
Перевод: Профессиональное (многоголосое) [лицензия]

Режиссер: Фред Кавайе
Сценарий: Фред Кавайе, Гийом Леман
Продюсер: Сирил Колбо-Жустин, Жан-Баптист Дюпон, Джереми Бурдек
Оператор: Ален Дюплантье
Композитор: Клаус Бадельт

В ролях: Жилль Лелуш, Рошди Зем, Жерар Ланвен, Елена Анайя, Мирей Перье, Клер Перо

Описание: Профессия Сэмюэля Перрье — спасать людей. Но в этот раз медбрат спас ну совсем «не того» парня. И вот теперь его беременную жену похитили бандиты, чтоб заставить Сэмюэля помочь их пахану свалить из больницы. Чтобы спасти жену и выжить самому, ему предстоит выиграть смертельные гонки на выживание с бандитами и полицейскими не только по улицам Парижа но и под землей.

KinoPoisk.ru: 7.227
IMDb.com: 6.8/10

Pаздача группы:Изображение

Качество: BDRip 1080p
Формат: Mkv

Видео: MPEG4 Video (H264) 1920x816 24.00fps 14.5 Mbps
Аудио 1: Dolby AC3 48000Hz stereo 224 Kbps
Аудио 2: Dts 48000Hz 6 ch 1 510 Kbps
Subtitle: Utf-8

Изображение

MediaInfo
General
Unique ID : 239004355555697296596339397911955095540 (0xB3CE9084682B501BAEE6DE9A7A67BFF4)
Complete name : G:\Kino\V.upor.DVD_RG.1080p.mkv
Format : Matroska
File size : 9.52 GiB
Duration : 1h 24mn
Overall bit rate : 16.2 Mbps
Movie name : В упор / À bout portant (2010) Release for Uniongang.tv
Encoded date : UTC 2011-09-20 18:12:17
Writing application : mkvmerge v4.9.1 ('Ich will') сборка от Jul 11 2011 23:53:15
Writing library : libebml v1.2.1 + libmatroska v1.1.1

Video
ID : 1
Format : AVC
Format/Info : Advanced Video Codec
Format profile : High@L4.1
Format settings, CABAC : Yes
Format settings, ReFrames : 5 frames
Format settings, GOP : M=1, N=24
Codec ID : V_MPEG4/ISO/AVC
Duration : 1h 24mn
Bit rate : 14.5 Mbps
Width : 1 920 pixels
Height : 816 pixels
Display aspect ratio : 2.35:1
Frame rate : 24.000 fps
Color space : YUV
Chroma subsampling : 4:2:0
Bit depth : 8 bits
Scan type : Progressive
Bits/(Pixel*Frame) : 0.386
Stream size : 8.31 GiB (87%)
Title : В упор / À bout portant (2010) Release for Uniongang.tv
Writing library : x264 core 114 r1924 08d04a4
Encoding settings : cabac=1 / ref=5 / deblock=1:-3:-3 / analyse=0x3:0x133 / me=tesa / subme=10 / psy=1 / psy_rd=0.87:0.10 / mixed_ref=1 / me_range=24 / chroma_me=1 / trellis=2 / 8x8dct=1 / cqm=0 / deadzone=21,11 / fast_pskip=0 / chroma_qp_offset=-3 / threads=12 / sliced_threads=0 / nr=0 / decimate=1 / interlaced=0 / constrained_intra=0 / bframes=9 / b_pyramid=2 / b_adapt=2 / b_bias=0 / direct=3 / weightb=1 / open_gop=0 / weightp=2 / keyint=250 / keyint_min=24 / scenecut=40 / intra_refresh=0 / rc=2pass / mbtree=0 / bitrate=14500 / ratetol=1.0 / qcomp=0.70 / qpmin=10 / qpmax=69 / qpstep=4 / cplxblur=20.0 / qblur=0.5 / ip_ratio=1.40 / pb_ratio=1.30 / aq=1:0.60
Language : French

Audio #1
ID : 2
Format : AC-3
Format/Info : Audio Coding 3
Mode extension : CM (complete main)
Codec ID : A_AC3
Duration : 1h 24mn
Bit rate mode : Constant
Bit rate : 224 Kbps
Channel(s) : 2 channels
Channel positions : Front: L R
Sampling rate : 48.0 KHz
Bit depth : 16 bits
Compression mode : Lossy
Stream size : 135 MiB (1%)
Title : DD 2.0 @ 224 Kbps - MVO
Language : Russian

Audio #2
ID : 3
Format : DTS
Format/Info : Digital Theater Systems
Codec ID : A_DTS
Duration : 1h 24mn
Bit rate mode : Constant
Bit rate : 1 510 Kbps
Channel(s) : 6 channels
Channel positions : Front: L C R, Side: L R, LFE
Sampling rate : 48.0 KHz
Bit depth : 24 bits
Compression mode : Lossy
Delay relative to video : 33ms
Stream size : 907 MiB (9%)
Title : DTS 5.1 @ 1536 Kbps
Language : French

Text #1
ID : 4
Format : UTF-8
Codec ID : S_TEXT/UTF8
Codec ID/Info : UTF-8 Plain Text
Language : Russian

Text #2
ID : 5
Format : UTF-8
Codec ID : S_TEXT/UTF8
Codec ID/Info : UTF-8 Plain Text
Language : English

Menu
00:00:00.000 : en:00:00:00.000
00:06:24.125 : en:00:06:24.125
00:13:00.375 : en:00:13:00.375
00:21:25.458 : en:00:21:25.458
00:27:55.583 : en:00:27:55.583
00:34:05.750 : en:00:34:05.750
00:40:16.542 : en:00:40:16.542
00:48:48.250 : en:00:48:48.250
00:54:26.458 : en:00:54:26.458
00:59:38.208 : en:00:59:38.208
01:08:11.083 : en:01:08:11.083
01:15:53.083 : en:01:15:53.083


Свернуть
Скриншоты
Изображение
Изображение
Изображение
Изображение
Изображение
Свернуть
Не в сети
Профиль  
 Добавлено: 2011-09-21 16:43 (спустя 11 часов)
Кинокомментатор
Аватара пользователя
Стаж: 9 лет 1 месяц
Сообщений: 1332
Лайков: 54
кино качественное интересное и главное не длинное)) посмотрел) порадовался) кончилось) самое то:) но и ничего особенного в принципе;) 7 самая та оценка;)
_________________
Я ВКонтакте
Не в сети
Профиль  
Начать новую темуОтветить на тему  [ Сообщений: 2 ] 
Вы не можете начинать темы
Вы не можете отвечать на сообщения
Вы не можете редактировать свои сообщения
Вы не можете удалять свои сообщения