Правила форума

  • В этом разделе создание новых тем Запрещено.
  • Для создания новых тем пользуйтесь Корневым разделом DVD и HD фильмы.
Начать новую темуОтветить на тему  [ Сообщений: 2 ] 
Торрент файл
Размер: 4.35 GB • Зарегистрирован: 4 года 3 месяца • Статус: Проверено
Скачан: 63 раза • Желающих скачать: 0 • Поблагодарили: 17 раз
 Раздают: 0  |  0 KB/s  ]   Качают: 0  |  0 KB/s  ] 
 Полного источника не было 1 год 7 месяцев 
Сообщения
 Добавлено: 2012-08-23 19:43
Top-seeder
Аватара пользователя
Стаж: 9 лет
Сообщений: 1399
Спасибок: 28654
Лайков: 8
«V» значит Вендетта

Изображение


Информация о фильме
Название: «V» значит Вендетта
Оригинальное название: V for Vendetta
Год выхода: 2006
Жанр: фантастика, боевик, триллер
Режиссер: Джеймс МакТиг
В ролях: Натали Портман, Хьюго Уивинг, Стивен Ри, Стивен Фрай, Джон Хёрт, Тим Пиготт-Смит, Руперт Грейвз, Роджер Аллам, Бен Майлз, Шинейд Кьюсак

О фильме:
Альтернативное будущее. В Британии установилась фашистская диктатура, инакомыслие и ислам объявлены вне закона. На ее территории живет и действует «В» - террорист и борец за свободу, носящий фарфоровую маску, скрывающую его личность. Он ведет жестокую партизанскую войну с режимом. В этой войне он привлекает на свою сторону Иви Хаммонд - молодую женщину, которую вырвал из лап тайной полиции.


Страна: США, Германия, Великобритания
Продолжительность: 02:12:32
Перевод: Профессиональный (полное дублирование)

Файл
Кодек: h.264
Формат: MKV
Качество: BDRip 1080p
Видео: 1920x800, 4400 Кбит/сек, 23,976 кадр/сек, 0.119 Бит/(Пиксели*Кадры)
Звук: AC-3, 386 Кбит/сек, 6 канала(ов), 48,0 КГц
Субтитры: Нет

MI
Общее
Уникальный идентификатор : 276431291025806849632271229154579635914 (0xCFF6BAE7853F2BFBC2CFE0AF80F2DECA)
Полное имя : D:\Закачки\«V» значит Вендетта - V For Vendetta.mkv
Формат : Matroska
Размер файла : 4,35 Гбайт
Продолжительность : 2 ч. 12 м.
Общий поток : 4703 Кбит/сек
Программа кодирования : Lavf52.94.0
Библиотека кодирования : Lavf52.94.0

Видео
Идентификатор : 1
Формат : AVC
Формат/Информация : Advanced Video Codec
Профиль формата : Main@L4.0
Параметр CABAC формата : Да
Параметр ReFrames формата : 2 кадра
Параметры GOP формата : M=4, N=54
Идентификатор кодека : V_MPEG4/ISO/AVC
Продолжительность : 2 ч. 12 м.
Битрейт : 4400 Кбит/сек
Ширина : 1920 пикс.
Высота : 800 пикс.
Соотношение сторон : 2,40:1
Режим частоты кадров : Переменный
Частота кадров : 23,976 кадр/сек
Цветовое пространство : YUV
Подвыборка цветности : 4:2:0
Битовая глубина : 8 бит
Тип развёртки : Прогрессивная
Бит/(Пиксели*Кадры) : 0.119
Размер потока : 3,91 Гбайт (90%)
Библиотека кодирования : x264 core 112 r1834 a51816a
Настройки программы : cabac=1 / ref=1 / deblock=1:0:0 / analyse=0x1:0 / me=dia / subme=2 / psy=1 / psy_rd=0.00:0.00 / mixed_ref=0 / me_range=16 / chroma_me=1 / trellis=0 / 8x8dct=0 / cqm=0 / deadzone=21,11 / fast_pskip=1 / chroma_qp_offset=0 / threads=4 / sliced_threads=0 / nr=0 / decimate=1 / interlaced=0 / constrained_intra=0 / bframes=3 / b_pyramid=0 / b_adapt=1 / b_bias=0 / direct=3 / weightb=0 / open_gop=0 / weightp=2 / keyint=250 / keyint_min=25 / scenecut=40 / intra_refresh=0 / rc_lookahead=40 / rc=abr / mbtree=1 / bitrate=4400 / ratetol=1.0 / qcomp=0.60 / qpmin=10 / qpmax=51 / qpstep=4 / ip_ratio=1.41 / aq=1:1.00
Язык : English

Аудио
Идентификатор : 2
Формат : AC-3
Формат/Информация : Audio Coding 3
Расширение режима : CM (complete main)
Идентификатор кодека : A_AC3
Продолжительность : 2 ч. 12 м.
Вид битрейта : Постоянный
Битрейт : 384 Кбит/сек
Каналы : 6 каналов
Расположение каналов : Front: L C R, Side: L R, LFE
Частота : 48,0 КГц
Битовая глубина : 16 бит
Метод сжатия : С потерями
Размер потока : 364 Мбайт (8%)
Язык : English

Свернуть

Скриншоты
ИзображениеИзображениеИзображение
Свернуть

Дополнительная информация от релизера: Отличный фильм.Советую всем посмотреть.
Не в сети
Профиль  
 Добавлено: 2012-08-23 21:57 (спустя 2 часа 14 минут)
Top-releaser
Стаж: 4 года 11 месяцев
Сообщений: 311
Спасибок: 3512
Лайков: 2

Paladan:


Дополнительная информация от релизера: Отличный фильм.Советую всем посмотреть.
:bra_vo: :a_g_a:
Не в сети
Профиль  
Начать новую темуОтветить на тему  [ Сообщений: 2 ] 
Вы не можете начинать темы
Вы не можете отвечать на сообщения
Вы не можете редактировать свои сообщения
Вы не можете удалять свои сообщения