Правила форума

  • В этом разделе создание новых тем Запрещено.
  • Для создания новых тем пользуйтесь Корневым разделом DVD и HD фильмы.
Начать новую темуОтветить на тему  [ Сообщений: 4 ] 
Торрент файл
Размер: 12.06 GB • Зарегистрирован: 2 года 10 месяцев • Статус: Проверено
Скачан: 169 раз • Желающих скачать: 0 • Поблагодарили: 80 раз
 Раздают: 0  |  0 KB/s  ]   Качают: 0  |  0 KB/s  ] 
 Полного источника не было 1 минута 
Сообщения
 Добавлено: 2014-01-24 08:04
Аватара пользователя
Стаж: 9 лет 1 месяц
Сообщений: 7986
Спасибок: 122226
Лайков: 1191
Va-банк / Runner Runner

«Игра стоит свеч»

Изображение


Год выпуска: 2013
Страна: Изображение США
Жанр: триллер, драма, криминал
Продолжительность: 01:31:39
Субтитры: Русские, украинские, английские
Перевод: Профессиональный (полное дублирование) [Лицензия]


Режиссер: Брэд Фурман
Сценарий: Брайан Коппельман, Дэвид Левин
Продюсер: Леонардо ДиКаприо, Дженнифер Дэвиссон, Брайан Коппельман
Оператор: Мауро Фиоре
Композитор: Кристоф Бек

В ролях: Джастин Тимберлэйк, Бен Аффлек, Джемма Артертон, Энтони Маки, Майкл Эспер, Оливер Купер, Кристиан Джордж, Юл Васкез, Джон Хёрд, Джеймс Молина

Описание: Чтобы оплачивать учёбу в колледже, Ричи погружается в мир азартных игр онлайн. Когда удача изменяет ему, он отправляется на Коста-Рику, чтобы помериться силами с настоящим асом игрового бизнеса. Тот видит в Ричи родственную душу и вводит его в свою игру. Но когда степень опасности возрастает, а ставки достигают невероятных высот, Ричи вдруг отчётливо понимает, что его новый босс вот-вот совершит непоправимое, и пытается поменяться с ним ролями.

Изображение Изображение

Раздача группы: Изображение

Качество: BDRip (1080p)
Формат: Matroska
Видео: MPEG-4 AVC, 15.5 Мбит/с, 1920x800, 23.976 кадр/с
Аудио №1: Русский (DTS, 48,0 КГц, 6 ch, 768 Кбит/c)
Аудио №2: Русский (AC3, 48,0 КГц, 6 ch, 640 Кбит/c)
Аудио №3: Украинский (AC3, 48,0 КГц, 6 ch, 448Кбит/c)
Аудио №4: Английский (DTS, 48,0 КГц, 6 ch, 1510 Кбит/c)

MediaInfo
Общее
Уникальный идентификатор : 216856711725885315145633673750735647267 (0xA325155EA535277F8CB893A85B9A7223)
Полное имя : C:\Фильмы\Runner.Runner.2013.BDRip.1080p.[R.G.Daredevil].mkv
Формат : Matroska
Версия формата : Version 2
Размер файла : 12,1 Гбайт
Продолжительность : 1 ч. 31 м.
Общий поток : 18,9 Мбит/сек
Дата кодирования : UTC 2014-01-24 01:36:26
Программа кодирования : mkvmerge v6.7.0 ('Back to the Ground') 32bit built on Jan 8 2014 15:03:17
Библиотека кодирования : libebml v1.3.0 + libmatroska v1.4.1

Видео
Идентификатор : 1
Формат : AVC
Формат/Информация : Advanced Video Codec
Профиль формата : High@L4.1
Параметр CABAC формата : Да
Параметр ReFrames формата : 5 кадров
Идентификатор кодека : V_MPEG4/ISO/AVC
Продолжительность : 1 ч. 31 м.
Битрейт : 15,5 Мбит/сек
Ширина : 1920 пикселей
Высота : 800 пикселей
Соотношение сторон : 2,40:1
Режим частоты кадров : Постоянный
Частота кадров : 23,976 кадра/сек
Цветовое пространство : YUV
Субдискретизация насыщенности : 4:2:0
Битовая глубина : 8 бит
Тип развёртки : Прогрессивная
Бит/(Пиксели*Кадры) : 0.421
Размер потока : 9,67 Гбайт (80%)
Библиотека кодирования : x264 core 138 r2356 a1d3d17
Настройки программы : cabac=1 / ref=5 / deblock=1:-3:-3 / analyse=0x3:0x113 / me=umh / subme=10 / psy=1 / psy_rd=1.00:0.05 / mixed_ref=1 / me_range=32 / chroma_me=1 / trellis=2 / 8x8dct=1 / cqm=0 / deadzone=21,11 / fast_pskip=0 / chroma_qp_offset=-2 / threads=18 / lookahead_threads=1 / sliced_threads=0 / nr=0 / decimate=1 / interlaced=0 / bluray_compat=0 / constrained_intra=0 / bframes=6 / b_pyramid=2 / b_adapt=2 / b_bias=0 / direct=3 / weightb=1 / open_gop=0 / weightp=2 / keyint=250 / keyint_min=23 / scenecut=40 / intra_refresh=0 / rc=2pass / mbtree=0 / bitrate=15520 / ratetol=1.0 / qcomp=0.70 / qpmin=0 / qpmax=69 / qpstep=4 / cplxblur=20.0 / qblur=0.5 / ip_ratio=1.40 / pb_ratio=1.30 / aq=2:0.90
Язык : English
Default : Да
Forced : Нет

Аудио #1
Идентификатор : 2
Формат : DTS
Формат/Информация : Digital Theater Systems
Режим : 16
Параметр Endianness формата : Big
Идентификатор кодека : A_DTS
Продолжительность : 1 ч. 31 м.
Вид битрейта : Постоянный
Битрейт : 768 Кбит/сек
Каналы : 6 каналов
Расположение каналов : Front: L C R, Side: L R, LFE
Частота : 48,0 КГц
Битовая глубина : 24 бит
Метод сжатия : С потерями
Размер потока : 503 Мбайт (4%)
Язык : Russian
Default : Да
Forced : Нет

Аудио #2
Идентификатор : 3
Формат : AC-3
Формат/Информация : Audio Coding 3
Расширение режима : CM (complete main)
Параметр Endianness формата : Big
Идентификатор кодека : A_AC3
Продолжительность : 1 ч. 31 м.
Вид битрейта : Постоянный
Битрейт : 640 Кбит/сек
Каналы : 6 каналов
Расположение каналов : Front: L C R, Side: L R, LFE
Частота : 48,0 КГц
Битовая глубина : 16 бит
Метод сжатия : С потерями
Размер потока : 419 Мбайт (3%)
Язык : Russian
Default : Нет
Forced : Нет

Аудио #3
Идентификатор : 4
Формат : AC-3
Формат/Информация : Audio Coding 3
Расширение режима : CM (complete main)
Параметр Endianness формата : Big
Идентификатор кодека : A_AC3
Продолжительность : 1 ч. 31 м.
Вид битрейта : Постоянный
Битрейт : 448 Кбит/сек
Каналы : 6 каналов
Расположение каналов : Front: L C R, Side: L R, LFE
Частота : 48,0 КГц
Битовая глубина : 16 бит
Метод сжатия : С потерями
Размер потока : 293 Мбайт (2%)
Язык : Ukrainian
Default : Нет
Forced : Нет

Аудио #4
Идентификатор : 5
Формат : DTS
Формат/Информация : Digital Theater Systems
Режим : 16
Параметр Endianness формата : Big
Идентификатор кодека : A_DTS
Продолжительность : 1 ч. 31 м.
Вид битрейта : Постоянный
Битрейт : 1509 Кбит/сек
Каналы : 6 каналов
Расположение каналов : Front: L C R, Side: L R, LFE
Частота : 48,0 КГц
Битовая глубина : 24 бит
Метод сжатия : С потерями
Размер потока : 988 Мбайт (8%)
Язык : English
Default : Нет
Forced : Нет

Текст #1
Идентификатор : 6
Формат : UTF-8
Идентификатор кодека : S_TEXT/UTF8
Идентификатор кодека/Информация : UTF-8 Plain Text
Язык : Russian
Default : Да
Forced : Нет

Текст #2
Идентификатор : 7
Формат : UTF-8
Идентификатор кодека : S_TEXT/UTF8
Идентификатор кодека/Информация : UTF-8 Plain Text
Язык : Russian
Default : Нет
Forced : Нет

Текст #3
Идентификатор : 8
Формат : UTF-8
Идентификатор кодека : S_TEXT/UTF8
Идентификатор кодека/Информация : UTF-8 Plain Text
Язык : Ukrainian
Default : Нет
Forced : Нет

Текст #4
Идентификатор : 9
Формат : UTF-8
Идентификатор кодека : S_TEXT/UTF8
Идентификатор кодека/Информация : UTF-8 Plain Text
Язык : English
Default : Нет
Forced : Нет

Текст #5
Идентификатор : 10
Формат : UTF-8
Идентификатор кодека : S_TEXT/UTF8
Идентификатор кодека/Информация : UTF-8 Plain Text
Язык : English
Default : Нет
Forced : Нет

Текст #6
Идентификатор : 11
Формат : UTF-8
Идентификатор кодека : S_TEXT/UTF8
Идентификатор кодека/Информация : UTF-8 Plain Text
Язык : English
Default : Нет
Forced : Нет

Меню
00:00:00.000 : en:00:00:00.000
00:03:08.814 : en:00:03:08.814
00:05:47.973 : en:00:05:47.973
00:08:43.857 : en:00:08:43.857
00:11:16.384 : en:00:11:16.384
00:13:34.647 : en:00:13:34.647
00:15:13.913 : en:00:15:13.913
00:16:55.765 : en:00:16:55.765
00:19:46.602 : en:00:19:46.602
00:24:24.505 : en:00:24:24.505
00:27:07.334 : en:00:27:07.334
00:31:01.943 : en:00:31:01.943
00:32:59.811 : en:00:32:59.811
00:36:30.605 : en:00:36:30.605
00:38:40.026 : en:00:38:40.026
00:43:36.906 : en:00:43:36.906
00:46:38.087 : en:00:46:38.087
00:48:37.706 : en:00:48:37.706
00:53:03.555 : en:00:53:03.555
00:54:38.609 : en:00:54:38.609
00:57:18.644 : en:00:57:18.644
01:00:38.885 : en:01:00:38.885
01:03:17.669 : en:01:03:17.669
01:08:48.833 : en:01:08:48.833
01:13:04.797 : en:01:13:04.797
01:16:45.935 : en:01:16:45.935
01:21:22.961 : en:01:21:22.961
01:25:32.502 : en:01:25:32.502
Свернуть
Скриншоты
Изображение
Изображение
Изображение
Изображение
Свернуть
 sashannov нравится это.
Не в сети
Профиль  
 Добавлено: 2014-02-01 13:20 (спустя 8 дней)
Стаж: 7 лет 10 месяцев
Сообщений: 5
Спасибок: 17
Актеры бомбы. Кто смотрел как фильмец?
Не в сети
Профиль  
 Добавлено: 2014-02-15 10:21 (спустя 13 дней)
Стаж: 3 года 10 месяцев
Сообщений: 187
Лайков: 61
Фильм увлекательный и познавательный.
Советую к просмотру.
Да и Джемма Артертон в этом фильме хороша, глядя на неё радуется душа )
Не в сети
Профиль  
 Добавлено: 2014-07-01 00:28 (спустя 4 месяца 15 дней)
Стаж: 7 лет 11 месяцев
Сообщений: 20
дайте скорости плиз
Не в сети
Профиль  
Начать новую темуОтветить на тему  [ Сообщений: 4 ] 
Вы не можете начинать темы
Вы не можете отвечать на сообщения
Вы не можете редактировать свои сообщения
Вы не можете удалять свои сообщения