Правила форума

  • В этом разделе создание новых тем Запрещено.
  • Для создания новых тем пользуйтесь Корневым разделом DVD и HD фильмы.
Начать новую темуОтветить на тему  [ 1 сообщение ] 
Торрент файл
Размер: 18.53 GB • Зарегистрирован: 3 года 10 месяцев • Статус: Проверено
Скачан: 48 раз • Желающих скачать: 0 • Поблагодарили: 16 раз
 Раздают: 0  |  0 KB/s  ]   Качают: 0  |  0 KB/s  ] 
 Полного источника не было 5 месяцев 23 дня 
Сообщения
 Добавлено: 2013-02-28 21:06
Модератор релиз-группы
Аватара пользователя
Стаж: 7 лет 8 месяцев
Возраст: 29
Сообщений: 9789
Спасибок: 23730
Лайков: 103
Изображение

Ван Хельсинг
Van Helsing


Год выпуска: 2004
Страна: США, Чехия
Слоган: «The One Name They All Fear»
Жанр: фэнтези, боевик, триллер, драма, детектив, приключения
Продолжительность: 02:11:37
Перевод: Профессиональный (полное дублирование)
Авторский (одноголосый)
Авторский (Гаврилов Андрей)
Авторский (Сербин Юрий)

Режиссер: Стивен Соммерс
Сценарий: Стивен Соммерс
Продюсер: Боб Дюксэй, Стивен Соммерс, Сэм Мерсер, Дэвид Минковски, Артист В. Робинсон
Оператор: Аллен Давио
Композитор: Алан Сильвестри
В ролях: Хью Джекман, Кейт Бекинсейл, Ричард Роксбург, Дэвид Уэнэм, Шулер Хенсли, Елена Анайя, Уилл Кемп, Кевин Дж. О’Коннор, Алан Армстронг, Сильвия Коллока, Джози Мэран, Том Фишер
Бюджет: $160 000 000
Сборы в США: $120 177 084
Сборы в России: $8 175 000
Сборы в мире: $300 157 638
Мировая премьера: 3 мая 2004
Релиз на DVD: 8 июля 2004, «CP-Digital»
Описание: Глубоко в Карпатах лежит таинственная страна Трансильвания - мир, в котором зло встречается на каждом шагу, мир, в котором опасность оживает с заходом солнца, и где монстры, живущие в глубине человеческих кошмаров, обретают форму. В этот мир попадает легендарный охотник на чудовищ Ван Хельсинг, рождённый на страницах романа «Дракула» Брэма Стокера.
В своей непрерывной битве против сил зла и за освобождение мира от порождений ада, Ван Хельсинг, по заданию секретного общества, отправляется в Трансильванию, чтобы скрестить оружие со смертельно опасным, наделённым неведомой силой графом Дракулой. На помощь ему внезапно приходит бесстрашная Анна Валери, поставившая целью избавить свою семью от векового проклятья, наложенного убитым вампиром.


Изображение User Rating: 7.491 (72 807)
Изображение User Rating: 5.80 (115 921)
MPAA: PG-13 - Детям до 13 лет просмотр не желателен
Раздача группы: Изображение
Качество: BDRip, 1080p
Формат: MKV
Видео: AVC; 1920x1040 (16:9); 12955 Kbps; 23,976 fps; 0,271 bit/pixel
Аудио №1: русский; DTS; 755 Kbps; CBR; 6 ch; 24 bit
Аудио №2: русский; DTS; 1510 Kbps; CBR; 6 ch; 24 bit
Аудио №3: русский; DTS; 1510 Kbps; CBR; 6 ch; 24 bit
Аудио №4: русский; DTS; 1510 Kbps; CBR; 6 ch; 24 bit
Аудио №5: английский; DTS; 1510 Kbps; CBR; 6 ch; 24 bit

Субтитры №1: русские
Субтитры №2: английские

mediainfo
Общее
Уникальный идентификатор : 221126885037649200382234660692618043549 (0xA65B7D2B3129987FA037BB17BF76E09D)
Полное имя : D:\TORRENT\Van.Helsing.2004.x264.BDRip.(1080p).marcury.mkv
Формат : Matroska
Размер файла : 18,5 Гбайт
Продолжительность : 2 ч. 11 м.
Общий поток : 20,2 Мбит/сек
Название фильма : Van Helsing (2004) - Release for marcury
Дата кодирования : UTC 2013-01-29 15:52:00
Программа кодирования : mkvmerge v2.1.0 ('Another Place To Fall') built on Aug 19 2007 13:40:07
Библиотека кодирования : libebml v0.7.7 + libmatroska v0.8.1

Видео
Идентификатор : 1
Формат : AVC
Формат/Информация : Advanced Video Codec
Профиль формата : High@L4.1
Параметр CABAC формата : Да
Параметр ReFrames формата : 4 кадра
Идентификатор кодека : V_MPEG4/ISO/AVC
Продолжительность : 2 ч. 11 м.
Битрейт : 13,4 Мбит/сек
Ширина : 1920 пикс.
Высота : 1040 пикс.
Соотношение сторон : 16:9
Частота кадров : 23,976 кадр/сек
Цветовое пространство : YUV
Подвыборка цветности : 4:2:0
Битовая глубина : 8 бит
Тип развёртки : Прогрессивная
Бит/(Пиксели*Кадры) : 0.279
Размер потока : 11,9 Гбайт (64%)
Заголовок : Ван Хельсинг / Van Helsing (2004) BDRip (1080p) - marcury
Библиотека кодирования : x264 core 67 r1139M 1024283
Настройки программы : cabac=1 / ref=4 / deblock=1:-3:-3 / analyse=0x3:0x113 / me=umh / subme=9 / psy_rd=1.0:0.0 / mixed_ref=1 / me_range=32 / chroma_me=1 / trellis=2 / 8x8dct=1 / cqm=0 / deadzone=21,11 / chroma_qp_offset=-2 / threads=6 / nr=0 / decimate=0 / mbaff=0 / bframes=3 / b_pyramid=1 / b_adapt=2 / b_bias=0 / direct=3 / wpredb=1 / keyint=250 / keyint_min=25 / scenecut=40 / rc=2pass / bitrate=13352 / ratetol=1.0 / qcomp=0.60 / qpmin=10 / qpmax=51 / qpstep=4 / cplxblur=20.0 / qblur=0.5 / ip_ratio=1.40 / pb_ratio=1.30 / aq=1:0.80
Язык : English

Аудио #1
Идентификатор : 2
Формат : DTS
Формат/Информация : Digital Theater Systems
Идентификатор кодека : A_DTS
Продолжительность : 2 ч. 11 м.
Вид битрейта : Постоянный
Битрейт : 755 Кбит/сек
Каналы : 6 каналов
Расположение каналов : Front: L C R, Side: L R, LFE
Частота : 48,0 КГц
Битовая глубина : 24 бит
Метод сжатия : С потерями
Размер потока : 710 Мбайт (4%)
Заголовок : Русский (DTS, 6 ch, 768 Кбит/с) - Дублированный
Язык : Russian

Аудио #2
Идентификатор : 3
Формат : DTS
Формат/Информация : Digital Theater Systems
Идентификатор кодека : A_DTS
Продолжительность : 2 ч. 11 м.
Вид битрейта : Постоянный
Битрейт : 1510 Кбит/сек
Каналы : 6 каналов
Расположение каналов : Front: L C R, Side: L R, LFE
Частота : 48,0 КГц
Битовая глубина : 24 бит
Метод сжатия : С потерями
Размер потока : 1,39 Гбайт (7%)
Заголовок : Русский (DTS, 6 ch, 1510 Кбит/с) - Авторский одноголосый (Гаврилов)
Язык : Russian

Аудио #3
Идентификатор : 4
Формат : DTS
Формат/Информация : Digital Theater Systems
Идентификатор кодека : A_DTS
Продолжительность : 2 ч. 11 м.
Вид битрейта : Постоянный
Битрейт : 1510 Кбит/сек
Каналы : 6 каналов
Расположение каналов : Front: L C R, Side: L R, LFE
Частота : 48,0 КГц
Битовая глубина : 24 бит
Метод сжатия : С потерями
Размер потока : 1,39 Гбайт (7%)
Заголовок : Русский (DTS, 6 ch, 1510 Кбит/с) - Авторский одноголосый (Живов)
Язык : Russian

Аудио #4
Идентификатор : 5
Формат : DTS
Формат/Информация : Digital Theater Systems
Идентификатор кодека : A_DTS
Продолжительность : 2 ч. 11 м.
Вид битрейта : Постоянный
Битрейт : 1510 Кбит/сек
Каналы : 6 каналов
Расположение каналов : Front: L C R, Side: L R, LFE
Частота : 48,0 КГц
Битовая глубина : 24 бит
Метод сжатия : С потерями
Размер потока : 1,39 Гбайт (7%)
Заголовок : Русский (DTS, 6 ch, 1510 Кбит/с) - Авторский одноголосый (Неизвестный)
Язык : Russian

Аудио #5
Идентификатор : 6
Формат : DTS
Формат/Информация : Digital Theater Systems
Идентификатор кодека : A_DTS
Продолжительность : 2 ч. 11 м.
Вид битрейта : Постоянный
Битрейт : 1510 Кбит/сек
Каналы : 6 каналов
Расположение каналов : Front: L C R, Side: L R, LFE
Частота : 48,0 КГц
Битовая глубина : 24 бит
Метод сжатия : С потерями
Размер потока : 1,39 Гбайт (7%)
Заголовок : Английский (DTS, 6 ch, 1510 Кбит/с) - Оригинал
Язык : English

Текст #1
Идентификатор : 7
Формат : UTF-8
Идентификатор кодека : S_TEXT/UTF8
Идентификатор кодека/Информация : UTF-8 Plain Text
Язык : Russian

Текст #2
Идентификатор : 8
Формат : ASS
Идентификатор кодека : S_TEXT/ASS
Идентификатор кодека/Информация : Advanced Sub Station Alpha
Метод сжатия : Без потерь
Язык : English


Свернуть
"Знаете ли Вы, что..."
  • Еще в 1994 году данный проект задумывался как сиквел к оригинальному фильму Брэма Стокера «Дракула», главную роль в котором должен был исполнить Энтони Хопкинс. Однако с тех пор утекло много воды, и первоначальный сценарий изменился до неузнаваемости.
  • Хью Джекман снимался в двух фильмах одновременно: «Люди Икс 2» и «Ван Хельсинг». Причем, предпочтение было отдано именно «Ван Хельсингу». Неслучайно съемки одной из сцен «Людей Икс 2» были перенесены на тот промежуток времени, когда Хью получил выходной день на съемочной площадке «ВХ». Тем не менее, в мировой прокат «Ван Хельсинг» вышел на год позднее.
  • Роль Карла по слухам должна была достаться Полу Хогану. Но в итоге Карлом был избран Дэвид Венхэм.
  • Специально для исполнения роли Ван Хельсинга Хью Джекман получил в свое распоряжение солидную шевелюру.
  • Оригинальный персонаж по фамилии Ван Хельсинг из «Дракулы» волею обстоятельств сменил свое имя с Абрахама на Гэбриель.
  • Стивен Соммерс хотел пригласить Кейт Бекинсейл на роль Анны, но подумал, что персонаж слишком похож на ее роль в фильме «Другой мир» (2003), снимавшемся одновременно. Однако агент актрисы попросил режиссера просто послать ей сценарий, и Бекинсейл немедленно согласилась на роль.
  • Роль Игоря была специально написана для близкого друга режиссера Кевина О’Коннора.
  • Начало фильма совпадает с началом Невеста Франкенштейна (фильм, 1935), где также сгорает мельница, а создание Франкенштейна спасается в колодце.
  • Во время съемок пришла трагическое известие о смерти отца режиссера, Стивена Соммерса. Поэтому надпись «In memory of my Dad» в финальных титрах вполне понятна.
Свернуть
Скриншоты

Изображение
Изображение
Изображение
Изображение
Изображение
Изображение
Изображение
Изображение
Изображение
Свернуть


Тема поднималась пользователем volkov2009 2013-02-28 21:06.
Не в сети
Профиль  
Начать новую темуОтветить на тему  [ 1 сообщение ] 
Вы не можете начинать темы
Вы не можете отвечать на сообщения
Вы не можете редактировать свои сообщения
Вы не можете удалять свои сообщения