Правила форума

  • В этом разделе создание новых тем Запрещено.
  • Для создания новых тем пользуйтесь Корневым разделом DVD и HD фильмы.
Начать новую темуОтветить на тему  [ 1 сообщение ] 
Торрент файл
Размер: 11.41 GB • Зарегистрирован: 1 год 2 месяца • Статус: Проверено
Скачан: 9 раз • Желающих скачать: 0 • Поблагодарили: 3 раза
 Раздают: 0  |  0 KB/s  ]   Качают: 0  |  0 KB/s  ] 
 Полного источника не было 12 часов 
Сообщения
 Добавлено: 2015-09-18 22:07
RG-ELEKTRO
Аватара пользователя
Стаж: 2 года 3 месяца
Сообщений: 7928
Спасибок: 53743
Лайков: 3304
Вдали от обезумевшей толпы / Far from the Madding Crowd



Изображение


Год выпуска: 2015
Страна: Великобритания, США (BBC Films, DNA Films, Fox Searchlight Pictures)
Жанр: драма, мелодрама
Продолжительность: 01:58:40
Перевод: Профессиональный (дубляж) (Лицензия) + Оригинальная звуковая дорожка
Субтитры: Русские, Английские

Режиссёр: Томас Винтерберг
В ролях: Кэри Маллиган, Маттиас Шонартс, Майкл Шин, Джуно Темпл, Том Стёрридж, Тилли Восберг, Марк Уингетт, Дориан Лок, Сэм Филлипс, Брэдли Холл
Описание: Унаследовав от дядюшки богатую ферму, юная Батшеба Эвердин энергично берется за дело, набрав себе рабочих. Берет она и разорившегося фермера Габриэля Оука - человека опытного и честного. Габриэль в свое время просил её руки, но потерпел неудачу. Теперь ей предлагает руку и сердце сосед, зажиточный фермер Уильям Болдвуд, но своенравная Батшеба пока не соглашается стать женой, попросив себе время на раздумья. Встреча с самовлюбленным красавцем сержантом Фрэнком Троем становится роковой для Батшебы.

Изображение Изображение Изображение
Качество: BDRip 1080p
Формат: MKV
Видео кодек: MPEG-4 AVC
Аудио кодек: DTS
Видео: MPEG-4 AVC, 11.5 Mбит/с, 1920x800, 23,976 fps
Аудио #1: DTS, 768 kb/s (6 ch), 48 kHz [Профессиональный (дубляж)]
Аудио #2: Eng, DTS, 1510 kb/s (6 ch), 48 kHz [Оригинальная звуковая дорожка]
Субтитры: Русские, Английские

"MI"
Format : Matroska
Format version : Version 4 / Version 2
File size : 11.4 GiB
Duration : 1h 58mn
Overall bit rate : 13.8 Mbps
Movie name : Вдали от обезумевшей толпы. (Tonik)
Encoded date : UTC 2015-09-18 17:26:57
Writing application : mkvmerge v7.1.0 ('Good Love') 64bit built on Jul 27 2014 13:06:55
Writing library : libebml v1.3.0 + libmatroska v1.4.1
_STATISTICS_WRITING_APP : mkvmerge v7.1.0 ('Good Love') 64bit built on Jul 27 2014 13:06:55
_STATISTICS_WRITING_DATE_UTC : 2015-09-18 17:26:57
_STATISTICS_TAGS : BPS DURATION NUMBER_OF_FRAMES NUMBER_OF_BYTES
DURATION : 01:58:40.155000000
NUMBER_OF_FRAMES : 170713
NUMBER_OF_BYTES : 10226949787

Video
ID : 1
Format : AVC
Format/Info : Advanced Video Codec
Format profile : High@L4.1
Format settings, CABAC : Yes
Format settings, ReFrames : 5 frames
Codec ID : V_MPEG4/ISO/AVC
Duration : 1h 58mn
Bit rate : 11.5 Mbps
Width : 1 920 pixels
Height : 800 pixels
Display aspect ratio : 2.40:1
Frame rate mode : Constant
Frame rate : 23.976 fps
Color space : YUV
Chroma subsampling : 4:2:0
Bit depth : 8 bits
Scan type : Progressive
Bits/(Pixel*Frame) : 0.312
Stream size : 9.30 GiB (81%)
Writing library : x264 core 142 r2409+42 04be48a tMod [8-bit@all X86_64]
Encoding settings : cabac=1 / ref=5 / deblock=1:-3:-3 / analyse=0x3:0x133 / me=umh / subme=11 / psy=1 / fade_compensate=0.00 / psy_rd=1.00:0.15 / mixed_ref=1 / me_range=24 / chroma_me=1 / trellis=2 / 8x8dct=1 / cqm=0 / deadzone=21,11 / fast_pskip=1 / chroma_qp_offset=-3 / threads=12 / lookahead_threads=2 / sliced_threads=0 / nr=0 / decimate=1 / interlaced=0 / bluray_compat=0 / constrained_intra=0 / fgo=0 / bframes=8 / b_pyramid=2 / b_adapt=2 / b_bias=0 / direct=3 / weightb=1 / open_gop=0 / weightp=2 / keyint=240 / keyint_min=23 / scenecut=40 / intra_refresh=0 / rc_lookahead=60 / rc=2pass / mbtree=1 / bitrate=11500 / ratetol=1.0 / qcomp=0.60 / qpmin=10:10:10 / qpmax=51:51:51 / qpstep=4 / cplxblur=20.0 / qblur=0.5 / vbv_maxrate=40000 / vbv_bufsize=30000 / nal_hrd=none / filler=0 / ip_ratio=1.40 / aq=1:1.00 / aq-sensitivity=10.00 / aq-factor=1.00:1.00:1.00 / aq2=0 / aq3=0
Language : English
Default : Yes
Forced : No

Audio #1
ID : 2
Format : DTS
Format/Info : Digital Theater Systems
Mode : 16
Format settings, Endianness : Big
Codec ID : A_DTS
Duration : 1h 58mn
Bit rate mode : Constant
Bit rate : 768 Kbps
Channel(s) : 6 channels
Channel positions : Front: L C R, Side: L R, LFE
Sampling rate : 48.0 KHz
Bit depth : 24 bits
Compression mode : Lossy
Stream size : 652 MiB (6%)
Language : Russian
Default : Yes
Forced : No

Audio #2
ID : 3
Format : DTS
Format/Info : Digital Theater Systems
Mode : 16
Format settings, Endianness : Big
Codec ID : A_DTS
Duration : 1h 58mn
Bit rate mode : Constant
Bit rate : 1 509 Kbps
Channel(s) : 6 channels
Channel positions : Front: L C R, Side: L R, LFE
Sampling rate : 48.0 KHz
Bit depth : 24 bits
Compression mode : Lossy
Stream size : 1.25 GiB (11%)
Language : English
Default : No
Forced : No

Text #1
ID : 4
Format : UTF-8
Codec ID : S_TEXT/UTF8
Codec ID/Info : UTF-8 Plain Text
Title : Forced
Language : Russian
Default : Yes
Forced : No

Text #2
ID : 5
Format : UTF-8
Codec ID : S_TEXT/UTF8
Codec ID/Info : UTF-8 Plain Text
Language : Russian
Default : No
Forced : No

Text #3
ID : 6
Format : UTF-8
Codec ID : S_TEXT/UTF8
Codec ID/Info : UTF-8 Plain Text
Language : English
Default : No
Forced : No

Menu
00:00:00.000 : en:Chapter 01
00:05:56.606 : en:Chapter 03
00:09:49.839 : en:Chapter 05
00:13:00.070 : en:Chapter 07
00:15:54.578 : en:Chapter 09
00:19:38.135 : en:Chapter 11
00:23:18.063 : en:Chapter 13
00:27:33.651 : en:Chapter 15
00:30:28.868 : en:Chapter 17
00:33:16.160 : en:Chapter 19
00:35:45.768 : en:Chapter 21
00:39:18.105 : en:Chapter 23
00:42:28.045 : en:Chapter 25
00:47:18.961 : en:Chapter 27
00:53:26.578 : en:Chapter 29
00:56:12.660 : en:Chapter 31
01:02:16.649 : en:Chapter 33
01:05:02.773 : en:Chapter 35
01:08:28.312 : en:Chapter 37
01:10:33.646 : en:Chapter 39
01:13:16.809 : en:Chapter 41
01:16:17.739 : en:Chapter 43
01:19:39.149 : en:Chapter 45
01:22:38.578 : en:Chapter 47
01:25:45.807 : en:Chapter 49
01:28:11.953 : en:Chapter 51
01:33:43.242 : en:Chapter 53
01:38:35.117 : en:Chapter 55
01:41:54.942 : en:Chapter 57
01:45:05.298 : en:Chapter 59
01:48:55.403 : en:Chapter 61
01:55:26.544 : en:Chapter 63
01:58:39.904 : en:Chapter 64
Свернуть

Скриншоты
Изображение
Изображение
Изображение
Свернуть
Изображение


Изображение Изображение
Не в сети
Профиль  
Начать новую темуОтветить на тему  [ 1 сообщение ] 
Вы не можете начинать темы
Вы не можете отвечать на сообщения
Вы не можете редактировать свои сообщения
Вы не можете удалять свои сообщения