Правила форума

  • В этом разделе создание новых тем Запрещено.
  • Для создания новых тем пользуйтесь Корневым разделом DVD и HD фильмы.
Начать новую темуОтветить на тему  [ 1 сообщение ] 
Торрент файл
Размер: 6.57 GB • Зарегистрирован: 5 лет 9 месяцев • Статус: Проверено
Скачан: 7 раз • Желающих скачать: 0 • Поблагодарили: 4 раза
 Раздают: 0  |  0 KB/s  ]   Качают: 0  |  0 KB/s  ] 
 Полного источника не было 3 года 2 месяца 
Сообщения
 Добавлено: 2011-02-20 15:07
Модератор релиз-группы
Аватара пользователя
Стаж: 9 лет 1 месяц
Возраст: 97
Сообщений: 11660
Спасибок: 6534
Лайков: 269
Ведьмы / The Witches

Изображение


Год выпуска: 1990
Страна: США, Великобритания
Слоган: «Только выпейте ведьминого зелья...»
Жанр: ужасы, фэнтези, семейный
Продолжительность: 01:27:44
Перевод: Профессиональный (многоголосый закадровый - Позитив-Мультимедиа)
Профессиональный (многоголосый закадровый - НТВ)
Оригинальная звуковая дорожка

Режиссёр: Николас Роуг
В ролях: Анджелика Хьюстон, Май Зеттерлинг, Джасен Фишер, Джейн Хоррокс, Энн Лэмтон, Роуэн Эткинсон, Билл Патерсон, Бренда Блетин, Чарли Поттер, Суки Смит
Описание: Когда бабушка Хельда рассказывала своему девятилетнему внуку Люку страшные сказки о ведьмах, ни она сама ни внук не подозревали, что сами ведьмы уже здесь, совсем рядом... Повелительница ведьм вынашивает зловещие планы, она хочет погубить всех детей с помощью ужасного зелья.

Если выпить это зелье, то можно превратиться в мышку. Бедный Люк уже стал ее жертвой и действительно превратился в мышонка. Однако он не собирается сдаваться, у него есть шанс спастись и спасти других. Уж о ком о ком, а о ведьмах он теперь знает немало!
Изображение 7.000 голосов:882

Изображение
Качество: HDTVRip, 1080i
Формат: MKV
Видео кодек: H264 (AVC)
Аудио кодек: AC3 (Dolby Digital)
Видео: 1920x1080i at 50.000 fps, MPEG-4 AVC, ~10.7 Mbps avg
Аудио #1: Russian: 48 kHz, AC3, 2/0 (L,R) ch, ~192.00 kbps avg (Позитив-Мультимедиа) [Профессиональный (многоголосый закадровый)]
Аудио #2: Russian: 48 kHz, AC3, 2/0 (L,R) ch, ~192.00 kbps avg (НТВ) [Профессиональный (многоголосый закадровый)]
Аудио #3: English: 48 kHz, AC3, 2/0 (L,R) ch, ~384.00 kbps avg [Оригинальная звуковая дорожка]
Скриншоты
Изображение

Изображение

Изображение

Изображение
Свернуть

Mi
Format : Matroska
File size : 6.57 GiB
Duration : 1h 27mn
Overall bit rate : 10.7 Mbps
Encoded date : UTC 2011-02-20 11:46:36
Writing application : mkvmerge v4.5.0 ('Speed of Light') сборка от Feb 1 2011 02:10:32
Writing library : libebml v1.2.0 + libmatroska v1.1.0

Video
ID : 1
Format : AVC
Format/Info : Advanced Video Codec
Format profile : Main@L4.0
Format settings, CABAC : Yes
Format settings, ReFrames : 4 frames
Codec ID : V_MPEG4/ISO/AVC
Duration : 1h 27mn
Bit rate mode : Variable
Bit rate : 9 737 Kbps
Maximum bit rate : 40.0 Mbps
Width : 1 920 pixels
Height : 1 080 pixels
Display aspect ratio : 16:9
Frame rate : 50.000 fps
Original frame rate : 25.000 fps
Color space : YUV
Chroma subsampling : 4:2:0
Bit depth : 8 bits
Scan type : Interlaced
Scan order : Top Field First
Bits/(Pixel*Frame) : 0.094
Stream size : 5.97 GiB (91%)
Language : English
Color primaries : BT.709-5, BT.1361, IEC 61966-2-4, SMPTE RP177
Transfer characteristics : BT.709-5, BT.1361
Matrix coefficients : BT.709-5, BT.1361, IEC 61966-2-4 709, SMPTE RP177

Audio #1
ID : 2
Format : AC-3
Format/Info : Audio Coding 3
Mode extension : CM (complete main)
Codec ID : A_AC3
Duration : 1h 27mn
Bit rate mode : Constant
Bit rate : 192 Kbps
Channel(s) : 2 channels
Channel positions : Front: L R
Sampling rate : 48.0 KHz
Bit depth : 16 bits
Compression mode : Lossy
Stream size : 121 MiB (2%)
Title : Многоголосый (Позитив-Мультимедиа)
Language : Russian

Audio #2
ID : 3
Format : AC-3
Format/Info : Audio Coding 3
Mode extension : CM (complete main)
Codec ID : A_AC3
Duration : 1h 27mn
Bit rate mode : Constant
Bit rate : 192 Kbps
Channel(s) : 2 channels
Channel positions : Front: L R
Sampling rate : 48.0 KHz
Bit depth : 16 bits
Compression mode : Lossy
Stream size : 121 MiB (2%)
Title : Многоголосый (НТВ)
Language : Russian

Audio #3
ID : 4
Format : AC-3
Format/Info : Audio Coding 3
Mode extension : CM (complete main)
Codec ID : A_AC3
Duration : 1h 27mn
Bit rate mode : Constant
Bit rate : 384 Kbps
Channel(s) : 2 channels
Channel positions : Front: L R
Sampling rate : 48.0 KHz
Bit depth : 16 bits
Compression mode : Lossy
Stream size : 241 MiB (4%)
Title : Original
Language : English

Свернуть
Не в сети
Профиль  
Начать новую темуОтветить на тему  [ 1 сообщение ] 
Вы не можете начинать темы
Вы не можете отвечать на сообщения
Вы не можете редактировать свои сообщения
Вы не можете удалять свои сообщения