Правила форума

  • В этом разделе создание новых тем Запрещено.
  • Для создания новых тем пользуйтесь Корневым разделом DVD и HD фильмы.
Начать новую темуОтветить на тему  [ Сообщений: 3 ] 
Торрент файл
Размер: 8.37 GB • Зарегистрирован: 4 года 5 месяцев • Статус: Проверено
Скачан: 69 раз • Желающих скачать: 0 • Поблагодарили: 20 раз
 Раздают: 0  |  0 KB/s  ]   Качают: 0  |  0 KB/s  ] 
 Полного источника не было 1 год 3 месяца 
Сообщения
 Добавлено: 2012-07-10 17:53
Top-releaser
Аватара пользователя
Стаж: 6 лет 7 месяцев
Сообщений: 2078
Спасибок: 3230
Лайков: 9
Ведьмина гора / Race to Witch Mountain
«Погоня со скоростью света»

Изображение


Год выпуска: 2009
Страна: США
Жанр: фантастика, триллер, комедия, приключения, семейный
Продолжительность: 01:38:17
Перевод: Профессиональный (полное дублирование)|Лицензия|

Режиссёр: Энди Фикмен
В ролях: Дуэйн «Скала» Джонсон, Анна-Cофия Робб, Александр Людвиг, Карла Гуджино, Киаран Хиндс, Том Эверетт Скотт, Крис Маркетт
Описание: В жизни Джека Бруно, таксиста-неудачника из Лас-Вегаса, всё перевернулось с ног на голову в тот момент, когда к нему в такси, спасаясь от погони, запрыгнули Сэт и Сара. Вскоре он поймёт, что его пассажиры дети с необычными паранормальными способностями, которых ему предстоит защитить от безжалостных преследователей

Бюджет: $65 000 000
Сборы в США: $67 172 594
Сборы в мире: + $39 214 547 = $106 387 141
Сборы в России: $1 841 642
DVD в США: $33 017 984
Раздача группы: Изображение

Качество: BDRip, 1080p
Формат: MKV
Видео кодек: H.264
Аудио кодек: AC3, DTS
Видео: 1920 x 800 (2.40) at 23.976 fps, MPEG-4 AVC, ~10.0 Mbps
Аудио #1: Russian: 48 kHz, AC3, 6ch, ~640.00 kbps
Аудио #2: English:48 KHz, DTS, 6 ch,1536 Kbps
Субтитры: Русские, Английские

Знаете ли вы, что...
  • Выставочный центр в Помоне, Калифорния был использован в фильме как UFO Expo 9, а Ведьминой горой стала гора Шайенн.
  • Режиссёр также консультировался у экспертов-уфологов, военных, и представителей ЦРУ, чтобы использовать необходимые для фильма сведения. Он также ввёл в сценарий внеземное существо под именем Сифон, над образом которого работали специалисты, создавшие Хищника и Чужого.
  • Номер такси - 1975 - отсылка к оригинальной картине «Escape to Witch Mountain» 1975-го года.
  • Ким Ричардс и Айк Айсенманн, сыгравшие брата и сестру в оригинале, получили небольшие роли - официантки кафе и шерифа. Имена этих героев схожи с именами героев первого фильма: Тони и Энтони, Тиа и Тина соответственно.
  • Первоначальный вариант сценария, написанный Мэттом Лопезом, был забракован режиссёром. Он был значительно ближе к оригинальному фильму 1975 года, чем взятая за основу более поздняя версия Марка Бомбэка.
  • Актриса Мередит Сэлинджер сыграла небольшую роль телевизионной репортёрши Натали Ганн. За двадцать четыре года до этого, в 1985 году, она дебютировала на экране в роли главной героини в диснеевской приключенческой ленте «Путешествие Натти Ганн».
  • Команда, отвечавшая за создание и дизайн титров, вмонтировала в звуковую дорожку небольшое послание, закодированное азбукой Морзе, говорящее «пожалуйста, отключите свои мобильные телефоны».
  • Режиссёр Энди Фикмен появляется в камео в качестве одного из посетителей выставки, которого отталкивает в сторону Дуэйн Джонсон в поисках детей.
Свернуть
MediaInfo
Общее
Уникальный идентификатор : 222832897399227459492921665403346376479 (0xA7A40E127C6AEFF9B74D24A6904A571F)
Полное имя : Z:\WWW\TR-Downloads\Vedmina.Gora.1080p[R.G.Daredevil].mkv
Формат : Matroska
Версия формата : Version 2
Размер файла : 8,37 Гбайт
Продолжительность : 1 ч. 38 м.
Общий поток : 12,2 Мбит/сек
Название фильма : Race to Witch Mountain (2009)
Дата кодирования : UTC 2009-08-05 14:29:25
Программа кодирования : mkvmerge v2.9.0 ('Moanin'') built on May 22 2009 17:46:31
Библиотека кодирования : libebml v0.7.7 + libmatroska v0.8.1
Attachment : Yes / Yes / Yes

Видео
Идентификатор : 1
Формат : AVC
Формат/Информация : Advanced Video Codec
Профиль формата : High@L4.1
Параметр CABAC формата : Да
Параметр ReFrames формата : 5 кадров
Идентификатор кодека : V_MPEG4/ISO/AVC
Продолжительность : 1 ч. 38 м.
Битрейт : 10,0 Мбит/сек
Ширина : 1920 пикселей
Высота : 800 пикселей
Соотношение сторон : 2,40:1
Частота кадров : 23,976 кадра/сек
Цветовое пространство : YUV
Субдискретизация насыщенности : 4:2:0
Битовая глубина : 8 бит
Тип развёртки : Прогрессивная
Бит/(Пиксели*Кадры) : 0.272
Размер потока : 6,72 Гбайт (80%)
Библиотека кодирования : x264 core 67 r1173 f6d3166
Настройки программы : cabac=1 / ref=5 / deblock=1:0:0 / analyse=0x3:0x133 / me=umh / subme=7 / psy_rd=1.0:0.0 / mixed_ref=1 / me_range=16 / chroma_me=1 / trellis=1 / 8x8dct=1 / cqm=0 / deadzone=21,11 / chroma_qp_offset=-2 / threads=12 / nr=0 / decimate=1 / mbaff=0 / bframes=3 / b_pyramid=1 / b_adapt=1 / b_bias=0 / direct=1 / wpredb=1 / keyint=250 / keyint_min=25 / scenecut=40 / rc=2pass / bitrate=10033 / ratetol=1.0 / qcomp=0.60 / qpmin=10 / qpmax=51 / qpstep=4 / cplxblur=20.0 / qblur=0.5 / ip_ratio=1.40 / pb_ratio=1.30 / aq=1:1.00
Default : Да
Forced : Нет

Аудио #1
Идентификатор : 2
Формат : AC-3
Формат/Информация : Audio Coding 3
Расширение режима : CM (complete main)
Параметр Endianness формата : Big
Идентификатор кодека : A_AC3
Продолжительность : 1 ч. 38 м.
Вид битрейта : Постоянный
Битрейт : 640 Кбит/сек
Каналы : 6 каналов
Расположение каналов : Front: L C R, Side: L R, LFE
Частота : 48,0 КГц
Битовая глубина : 16 бит
Метод сжатия : С потерями
Размер потока : 450 Мбайт (5%)
Заголовок : AC3_5.1_640kbps
Язык : Russian
Default : Да
Forced : Да

Аудио #2
Идентификатор : 3
Формат : DTS
Формат/Информация : Digital Theater Systems
Идентификатор кодека : A_DTS
Продолжительность : 1 ч. 38 м.
Вид битрейта : Постоянный
Битрейт : 1510 Кбит/сек
Каналы : 6 каналов
Расположение каналов : Front: L C R, Side: L R, LFE
Частота : 48,0 КГц
Битовая глубина : 24 бит
Метод сжатия : С потерями
Размер потока : 1,04 Гбайт (12%)
Заголовок : DTS_5.1_1536kbps
Язык : English
Default : Нет
Forced : Нет

Текст #1
Идентификатор : 4
Формат : UTF-8
Идентификатор кодека : S_TEXT/UTF8
Идентификатор кодека/Информация : UTF-8 Plain Text
Язык : Russian
Default : Да
Forced : Нет

Текст #2
Идентификатор : 5
Формат : ASS
Идентификатор кодека : S_TEXT/ASS
Идентификатор кодека/Информация : Advanced Sub Station Alpha
Метод сжатия : Без потерь
Язык : English
Default : Нет
Forced : Нет
Свернуть
Скриншоты
Изображение

Изображение

Изображение

Изображение
Свернуть
Не в сети
Профиль  
 Добавлено: 2014-05-05 16:31 (спустя 1 год 9 месяцев)
Аватара пользователя
Стаж: 8 лет 10 месяцев
Возраст: 26
Сообщений: 31
дайте скорости, уже почти неделю скачиваю по мимо малой скорости, так еше и на раздаче некого..........
Не в сети
Профиль  
 Добавлено: 2014-10-19 19:37 (спустя 5 месяцев 14 дней)
Аватара пользователя
Стаж: 7 лет 5 месяцев
Сообщений: 113
Лайков: 1
спс
_________________
Будь добрее
Не в сети
Профиль  
Начать новую темуОтветить на тему  [ Сообщений: 3 ] 
Вы не можете начинать темы
Вы не можете отвечать на сообщения
Вы не можете редактировать свои сообщения
Вы не можете удалять свои сообщения