Правила форума

  • В этом разделе создание новых тем Запрещено.
  • Для создания новых тем пользуйтесь Корневым разделом DVD и HD фильмы.
Начать новую темуОтветить на тему  [ 1 сообщение ] 
Торрент файл
Размер: 5.25 GB • Зарегистрирован: 4 года 4 месяца • Статус: Проверено
Скачан: 17 раз • Желающих скачать: 0 • Поблагодарили: 7 раз
 Раздают: 0  |  0 KB/s  ]   Качают: 0  |  0 KB/s  ] 
 Полного источника не было 3 года 2 месяца 
Сообщения
 Добавлено: 2012-07-10 18:07
Top-releaser
Аватара пользователя
Стаж: 6 лет 7 месяцев
Сообщений: 2078
Спасибок: 3230
Лайков: 9
Ведьмина гора / Race to Witch Mountain
«Погоня со скоростью света»

Изображение


Год выпуска: 2009
Страна: США
Жанр: фантастика, триллер, комедия, приключения, семейный
Продолжительность: 01:38:17
Перевод: Профессиональный (полное дублирование)|Лицензия|

Режиссёр: Энди Фикмен
В ролях: Дуэйн «Скала» Джонсон, Анна-Cофия Робб, Александр Людвиг, Карла Гуджино, Киаран Хиндс, Том Эверетт Скотт, Крис Маркетт
Описание: В жизни Джека Бруно, таксиста-неудачника из Лас-Вегаса, всё перевернулось с ног на голову в тот момент, когда к нему в такси, спасаясь от погони, запрыгнули Сэт и Сара. Вскоре он поймёт, что его пассажиры дети с необычными паранормальными способностями, которых ему предстоит защитить от безжалостных преследователей

Бюджет: $65 000 000
Сборы в США: $67 172 594
Сборы в мире: + $39 214 547 = $106 387 141
Сборы в России: $1 841 642
DVD в США: $33 017 984
Раздача группы: Изображение

Качество: BDRip, 720p
Формат: MKV
Видео кодек: H.264
Аудио кодек: AC3, DTS
Видео: 1280x534 at 23,976 fps, x264, ~4850 kbps avg
Аудио #1: Russian: 48 kHz, AC3, 3/2 (L,C,R,l,r) + LFE ch, ~640.00 kbps avg
Аудио #2: Ukrainian: 48 kHz, AC3, 3/2 (L,C,R,l,r) + LFE ch, ~640.00 kbps avg
Аудио #3: English: 48 kHz, DTS, 3/2 (L,C,R,l,r) + LFE ch, ~1536.00 kbps avg
Субтитры: Русские, Английские, Украинские

Знаете ли вы, что...
  • Выставочный центр в Помоне, Калифорния был использован в фильме как UFO Expo 9, а Ведьминой горой стала гора Шайенн.
  • Режиссёр также консультировался у экспертов-уфологов, военных, и представителей ЦРУ, чтобы использовать необходимые для фильма сведения. Он также ввёл в сценарий внеземное существо под именем Сифон, над образом которого работали специалисты, создавшие Хищника и Чужого.
  • Номер такси - 1975 - отсылка к оригинальной картине «Escape to Witch Mountain» 1975-го года.
  • Ким Ричардс и Айк Айсенманн, сыгравшие брата и сестру в оригинале, получили небольшие роли - официантки кафе и шерифа. Имена этих героев схожи с именами героев первого фильма: Тони и Энтони, Тиа и Тина соответственно.
  • Первоначальный вариант сценария, написанный Мэттом Лопезом, был забракован режиссёром. Он был значительно ближе к оригинальному фильму 1975 года, чем взятая за основу более поздняя версия Марка Бомбэка.
  • Актриса Мередит Сэлинджер сыграла небольшую роль телевизионной репортёрши Натали Ганн. За двадцать четыре года до этого, в 1985 году, она дебютировала на экране в роли главной героини в диснеевской приключенческой ленте «Путешествие Натти Ганн».
  • Команда, отвечавшая за создание и дизайн титров, вмонтировала в звуковую дорожку небольшое послание, закодированное азбукой Морзе, говорящее «пожалуйста, отключите свои мобильные телефоны».
  • Режиссёр Энди Фикмен появляется в камео в качестве одного из посетителей выставки, которого отталкивает в сторону Дуэйн Джонсон в поисках детей.
Свернуть
MediaInfo
Общее
Уникальный идентификатор : 182403241158692090771561668388159610937 (0x8939961EF8988D98AE6340A0603DE039)
Полное имя : Z:\WWW\TR-Downloads\Vedmina.Gora.720p[R.G.Daredevil].mkv
Формат : Matroska
Версия формата : Version 2
Размер файла : 5,25 Гбайт
Продолжительность : 1 ч. 38 м.
Общий поток : 7643 Кбит/сек
Название фильма : Race to Witch Mountain (2009)
Дата кодирования : UTC 2009-08-03 21:23:29
Программа кодирования : mkvmerge v2.9.7 ('Tenderness') built on Jul 1 2009 18:43:35
Библиотека кодирования : libebml v0.7.7 + libmatroska v0.8.1
Attachment : Yes / Yes / Yes

Видео
Идентификатор : 1
Формат : AVC
Формат/Информация : Advanced Video Codec
Профиль формата : High@L4.1
Параметр CABAC формата : Да
Параметр ReFrames формата : 8 кадров
Идентификатор кодека : V_MPEG4/ISO/AVC
Продолжительность : 1 ч. 38 м.
Битрейт : 4850 Кбит/сек
Ширина : 1280 пикселей
Высота : 534 пикселя
Соотношение сторон : 2,40:1
Частота кадров : 23,976 кадра/сек
Цветовое пространство : YUV
Субдискретизация насыщенности : 4:2:0
Битовая глубина : 8 бит
Тип развёртки : Прогрессивная
Бит/(Пиксели*Кадры) : 0.296
Размер потока : 3,23 Гбайт (62%)
Библиотека кодирования : x264 core 68 r1183M f21daff
Настройки программы : cabac=1 / ref=8 / deblock=1:-3:-3 / analyse=0x3:0x133 / me=esa / subme=9 / psy_rd=0.9:0.2 / mixed_ref=1 / me_range=24 / chroma_me=1 / trellis=2 / 8x8dct=1 / cqm=0 / deadzone=21,11 / chroma_qp_offset=-3 / threads=6 / nr=0 / decimate=1 / mbaff=0 / bframes=4 / b_pyramid=1 / b_adapt=2 / b_bias=0 / direct=3 / wpredb=1 / keyint=250 / keyint_min=25 / scenecut=40 / rc=2pass / bitrate=4850 / ratetol=1.0 / qcomp=0.60 / qpmin=10 / qpmax=35 / qpstep=4 / cplxblur=20.0 / qblur=0.5 / ip_ratio=1.40 / pb_ratio=1.30 / aq=1:0.70
Язык : English
Default : Да
Forced : Нет

Аудио #1
Идентификатор : 2
Формат : AC-3
Формат/Информация : Audio Coding 3
Расширение режима : CM (complete main)
Параметр Endianness формата : Big
Идентификатор кодека : A_AC3
Продолжительность : 1 ч. 38 м.
Вид битрейта : Постоянный
Битрейт : 640 Кбит/сек
Каналы : 6 каналов
Расположение каналов : Front: L C R, Side: L R, LFE
Частота : 48,0 КГц
Битовая глубина : 16 бит
Метод сжатия : С потерями
Размер потока : 450 Мбайт (8%)
Заголовок : AC3_5.1_640kbps
Язык : Russian
Default : Да
Forced : Да

Аудио #2
Идентификатор : 3
Формат : AC-3
Формат/Информация : Audio Coding 3
Расширение режима : CM (complete main)
Параметр Endianness формата : Big
Идентификатор кодека : A_AC3
Продолжительность : 1 ч. 38 м.
Вид битрейта : Постоянный
Битрейт : 640 Кбит/сек
Каналы : 6 каналов
Расположение каналов : Front: L C R, Side: L R, LFE
Частота : 48,0 КГц
Битовая глубина : 16 бит
Метод сжатия : С потерями
Размер потока : 450 Мбайт (8%)
Заголовок : AC3_5.1_640kbps
Язык : Ukrainian
Default : Нет
Forced : Нет

Аудио #3
Идентификатор : 4
Формат : DTS
Формат/Информация : Digital Theater Systems
Идентификатор кодека : A_DTS
Продолжительность : 1 ч. 38 м.
Вид битрейта : Постоянный
Битрейт : 1510 Кбит/сек
Каналы : 6 каналов
Расположение каналов : Front: L C R, Side: L R, LFE
Частота : 48,0 КГц
Битовая глубина : 24 бит
Метод сжатия : С потерями
Размер потока : 1,04 Гбайт (20%)
Заголовок : DTS_5.1_1536kbps
Язык : English
Default : Нет
Forced : Нет

Текст #1
Идентификатор : 5
Формат : UTF-8
Идентификатор кодека : S_TEXT/UTF8
Идентификатор кодека/Информация : UTF-8 Plain Text
Заголовок : Forced
Язык : Russian
Default : Да
Forced : Да

Текст #2
Идентификатор : 6
Формат : UTF-8
Идентификатор кодека : S_TEXT/UTF8
Идентификатор кодека/Информация : UTF-8 Plain Text
Заголовок : full
Язык : Russian
Default : Нет
Forced : Нет

Текст #3
Идентификатор : 7
Формат : UTF-8
Идентификатор кодека : S_TEXT/UTF8
Идентификатор кодека/Информация : UTF-8 Plain Text
Заголовок : Forced
Язык : Ukrainian
Default : Нет
Forced : Нет

Текст #4
Идентификатор : 8
Формат : UTF-8
Идентификатор кодека : S_TEXT/UTF8
Идентификатор кодека/Информация : UTF-8 Plain Text
Заголовок : full
Язык : Ukrainian
Default : Нет
Forced : Нет

Текст #5
Идентификатор : 9
Формат : ASS
Идентификатор кодека : S_TEXT/ASS
Идентификатор кодека/Информация : Advanced Sub Station Alpha
Метод сжатия : Без потерь
Язык : English
Default : Нет
Forced : Нет
Свернуть
Скриншоты
Изображение

Изображение

Изображение

Изображение
Свернуть
Не в сети
Профиль  
Начать новую темуОтветить на тему  [ 1 сообщение ] 
Вы не можете начинать темы
Вы не можете отвечать на сообщения
Вы не можете редактировать свои сообщения
Вы не можете удалять свои сообщения