Правила форума

  • В этом разделе создание новых тем Запрещено.
  • Для создания новых тем пользуйтесь Корневым разделом DVD и HD фильмы.
Начать новую темуОтветить на тему  [ Сообщений: 10 ] 
Торрент файл
Размер: 10.05 GB • Зарегистрирован: 3 года 5 месяцев • Статус: Проверено
Скачан: 148 раз • Желающих скачать: 0 • Поблагодарили: 50 раз
 Раздают: 0  |  0 KB/s  ]   Качают: 0  |  0 KB/s  ] 
 Полного источника не было 1 год 6 месяцев 
Сообщения
 Добавлено: 2013-07-04 23:55
Аватара пользователя
Стаж: 9 лет 1 месяц
Сообщений: 8013
Спасибок: 122244
Лайков: 1193
Великий мастер (Великие мастера) / Yi dai zong shi (The Grandmaster)

«In Martial Arts there is no right or wrong, only the last man standing.»

Изображение


Год выпуска: 2013
Страна: Изображение Гонконг Изображение Китай Изображение США
Жанр: боевик, драма
Продолжительность: 02:10:06
Перевод: Профессиональный (полное дублирование) [Лицензия] + Авторский (одноголосый, закадровый) [Zamez]


Режиссер: Вонг Кар-Вай
Сценарий: Вонг Кар-Вай, Сюй Хаофэн, Джинджи Зу
Продюсер: Гоцин Гу, Саньпин Хань, Куо Синг Ли
Оператор: Филипп Ле Сурд
Композитор: Натэниел Мекали, Сигэру Умэбваяси

В ролях: Цзыи Чжан, Тони Люн Чу Вай, Кунг Ле, Сон Хё-гю, Чжан Чжэнь, Юэнь Ву-Пин, Сю-Люн Люн, Чеунг-Ян Юэнь, Элвис Цуй, Менг Ло

Описание: Основатель старейшей Школы боевых искусств намерен уйти на покой и передать дела достойному преемнику. Но самый лучший его ученик вынашивает куда более амбициозные планы — он намерен объединить все разрозненные школы в одну. С этой целью он вызывает на поединок лидера каждой школы и, одерживая победу раз за разом, объединяет все школы. Последней остается школа его умершего учителя, отстоять память которого на поединок выходит его дочь, тайно влюбленная в своего соперника…

Изображение Изображение

Раздача группы: Изображение

Качество: BDRip (1080p)
Формат: Matroska
Видео: MPEG-4 AVC, 9145 Кбит/с, 1920x804
Аудио №1: Русский (AC3, 48,0 КГц, 6 ch, 448 Кбит/c) Дубляж (Перевод на расширенные сцены озвучен В. Замезом)
Аудио №2: Русский (DTS, 48,0 КГц, 6 ch, 768 Кбит/c) Zamez
Аудио №3: Китайский (DTS, 48,0 КГц, 6 ch, 768 Кбит/c)

Доп. инфо
В лицензии R5 вырезано много сцен, которые присутствуют на зарубежном Blu-ray. В данном релизе представлен рип с китайского Blu-ray, который на ~ 8 минут длиннее русского издания. Перевод на расширенные сцены озвучен В. Замезом
Свернуть
MediaInfo
Общее
Уникальный идентификатор : 229750483440402690365530295045455982230 (0xACD8556577DA89E1BB2BF168C961AE96)
Полное имя : C:\Фильмы\The.Grandmaster.2013.BDRip.(1080p).R.G.Daredevil.mkv
Формат : Matroska
Версия формата : Version 2
Размер файла : 10,1 Гбайт
Продолжительность : 2 ч. 10 м.
Общий поток : 11,1 Мбит/сек
Дата кодирования : UTC 2013-07-04 20:06:09
Программа кодирования : mkvmerge v5.7.0 ('The Whirlwind') built on Jul 29 2012 15:12:35
Библиотека кодирования : libebml v1.2.3 + libmatroska v1.3.0

Видео
Идентификатор : 1
Формат : AVC
Формат/Информация : Advanced Video Codec
Профиль формата : High@L4.1
Параметр CABAC формата : Да
Параметр ReFrames формата : 5 кадров
Идентификатор кодека : V_MPEG4/ISO/AVC
Продолжительность : 2 ч. 10 м.
Битрейт : 9145 Кбит/сек
Ширина : 1920 пикселей
Высота : 804 пикселя
Соотношение сторон : 2,40:1
Режим частоты кадров : Постоянный
Частота кадров : 24,000 кадра/сек
Цветовое пространство : YUV
Субдискретизация насыщенности : 4:2:0
Битовая глубина : 8 бит
Тип развёртки : Прогрессивная
Бит/(Пиксели*Кадры) : 0.247
Размер потока : 8,11 Гбайт (81%)
Библиотека кодирования : x264 core 125 r2208 d9d2288
Настройки программы : cabac=1 / ref=5 / deblock=1:-3:-3 / analyse=0x3:0x113 / me=umh / subme=10 / psy=1 / psy_rd=1.00:0.05 / mixed_ref=1 / me_range=32 / chroma_me=1 / trellis=2 / 8x8dct=1 / cqm=0 / deadzone=21,11 / fast_pskip=0 / chroma_qp_offset=-2 / threads=8 / lookahead_threads=1 / sliced_threads=0 / nr=0 / decimate=1 / interlaced=0 / bluray_compat=0 / constrained_intra=0 / bframes=4 / b_pyramid=2 / b_adapt=2 / b_bias=0 / direct=3 / weightb=1 / open_gop=0 / weightp=2 / keyint=250 / keyint_min=24 / scenecut=40 / intra_refresh=0 / rc=2pass / mbtree=0 / bitrate=9145 / ratetol=1.0 / qcomp=0.70 / qpmin=0 / qpmax=69 / qpstep=4 / cplxblur=20.0 / qblur=0.5 / ip_ratio=1.40 / pb_ratio=1.30 / aq=2:1.00
Язык : Chinese
Default : Да
Forced : Нет

Аудио #1
Идентификатор : 2
Формат : AC-3
Формат/Информация : Audio Coding 3
Расширение режима : CM (complete main)
Параметр Endianness формата : Big
Идентификатор кодека : A_AC3
Продолжительность : 2 ч. 10 м.
Вид битрейта : Постоянный
Битрейт : 384 Кбит/сек
Каналы : 6 каналов
Расположение каналов : Front: L C R, Side: L R, LFE
Частота : 48,0 КГц
Битовая глубина : 16 бит
Метод сжатия : С потерями
Размер потока : 357 Мбайт (3%)
Язык : Russian
Default : Да
Forced : Да

Аудио #2
Идентификатор : 3
Формат : DTS
Формат/Информация : Digital Theater Systems
Режим : 16
Параметр Endianness формата : Big
Идентификатор кодека : A_DTS
Продолжительность : 2 ч. 10 м.
Вид битрейта : Постоянный
Битрейт : 768 Кбит/сек
Каналы : 6 каналов
Расположение каналов : Front: L C R, Side: L R, LFE
Частота : 48,0 КГц
Битовая глубина : 24 бит
Метод сжатия : С потерями
Размер потока : 715 Мбайт (7%)
Заголовок : zamez
Язык : Russian
Default : Нет
Forced : Нет

Аудио #3
Идентификатор : 4
Формат : DTS
Формат/Информация : Digital Theater Systems
Режим : 16
Параметр Endianness формата : Big
Идентификатор кодека : A_DTS
Продолжительность : 2 ч. 10 м.
Вид битрейта : Постоянный
Битрейт : 768 Кбит/сек
Каналы : 6 каналов
Расположение каналов : Front: L C R, Side: L R, LFE
Частота : 48,0 КГц
Битовая глубина : 24 бит
Метод сжатия : С потерями
Размер потока : 715 Мбайт (7%)
Заголовок : Mandarin
Язык : Chinese
Default : Нет
Forced : Нет
Свернуть
Знаете ли вы, что...
Для подготовки к своей роли Тони Люн Чу Вай тренировался в течение года по четыре часа в день.

Проект был анонсирован почти за 10 лет до его релиза. Такая задержка была вызвана бесконечным перфекционизмом режиссера Вонга Кар-Вая. За этот период было выпущено несколько фильмов об Ип Мане (наиболее известные из них — «Ип Ман», 2008, и «Ип Ман 2», 2010).

На монтаж фильма ушло более года, прежде чем режиссер Вонг Кар-Вай был удовлетворен.

Свернуть
Скриншоты
Изображение
Изображение
Изображение
Изображение
Свернуть
В сети
Профиль  
 Добавлено: 2013-07-05 12:32 (спустя 12 часов)
Аватара пользователя
Стаж: 8 лет 1 месяц
Сообщений: 1776
Спасибок: 2301
Лайков: 22
Почему в заголовке не стоит, что это авторский перевод, я уж обрадовался, что лицензия вышла !!!
Не в сети
Профиль  
 Добавлено: 2013-07-06 13:42 (спустя 1 день 1 час)
Аватара пользователя
Стаж: 8 лет 3 месяца
Сообщений: 20
Со звуком чет совсем беда... То дубляж, то в некоторых сцена авторский перевод, то музыка обрывается... Пипец в общем какой то. Сильно портит восприятие фильма ИМХО :ne_ne:
Не в сети
Профиль  
 Добавлено: 2013-07-06 21:27 (спустя 7 часов)
Top-seeder
Стаж: 9 лет 1 месяц
Сообщений: 748
Спасибок: 636
Лайков: 3
Я не смог досмотреть...
Не в сети
Профиль  
 Добавлено: 2013-07-06 22:12 (спустя 44 минуты)
Аватара пользователя
Стаж: 8 лет 3 месяца
Сообщений: 20
Меня смаривало раза три наверно :hi_hi_hi:
Не в сети
Профиль  
 Добавлено: 2013-07-07 10:26 (спустя 12 часов)
Модератор релиз-группы
Аватара пользователя
Стаж: 9 лет 1 месяц
Возраст: 97
Сообщений: 11659
Спасибок: 6532
Лайков: 269
не досмотрел тоже
удалил
_________________
Изображение
Не в сети
Профиль  
 Добавлено: 2013-07-07 10:42 (спустя 15 минут)
Стаж: 7 лет 5 месяцев
Сообщений: 25
Так это лицензия или не лицензия? Что со звуком там?
Не в сети
Профиль  
 Добавлено: 2013-07-07 12:04 (спустя 1 час 22 минуты)
Модератор релиз-группы
Аватара пользователя
Стаж: 9 лет 1 месяц
Возраст: 97
Сообщений: 11659
Спасибок: 6532
Лайков: 269
скачай и услышишь
или лучше ждать ответов сутками, чем самому попробовать, а вдруг, вопреки откликам, понравится
_________________
Изображение
Не в сети
Профиль  
 Добавлено: 2013-07-14 17:16 (спустя 7 дней)
Аватара пользователя
Стаж: 8 лет
Сообщений: 1390
Спасибок: 39
Лайков: 64
бои норм :co_ol: а в целом фильм нудноват, после 30 мин просмотра мотал только на драки, и скачкИ перевода напрягают, мож обычная версия смотрица веселее но в хд тут ее нет :ne_znayu:
Не в сети
Профиль  
 Добавлено: 2013-09-14 21:34 (спустя 2 месяца)
Аватара пользователя
Стаж: 7 лет 8 месяцев
Сообщений: 107
Спасибок: 92
заценим..
Не в сети
Профиль  
Начать новую темуОтветить на тему  [ Сообщений: 10 ] 
Вы не можете начинать темы
Вы не можете отвечать на сообщения
Вы не можете редактировать свои сообщения
Вы не можете удалять свои сообщения