Правила форума

  • В этом разделе создание новых тем Запрещено.
  • Для создания новых тем пользуйтесь Корневым разделом DVD и HD фильмы.
Начать новую темуОтветить на тему  [ Сообщений: 6 ] 
Торрент файл
Размер: 7.44 GB • Зарегистрирован: 4 года • Статус: Проверено
Скачан: 194 раза • Желающих скачать: 0 • Поблагодарили: 47 раз
 Раздают: 0  |  0 KB/s  ]   Качают: 0  |  0 KB/s  ] 
 Полного источника не было 1 год 7 месяцев 
Сообщения
 Добавлено: 2012-12-08 11:06
Аватара пользователя
Стаж: 9 лет 1 месяц
Сообщений: 8047
Спасибок: 122283
Лайков: 1194
Верзила / The Tall Man

«Fear Takes a New Shape»

Изображение


Год выпуска: 2012
Страна: Изображение Канада Изображение Франция
Жанр: триллер, драма, криминал, детектив
Продолжительность: 01:45:41
Субтитры: Русские
Перевод: Профессиональный (многоголосый, закадровый) [лицензия]


Режиссёр: Паскаль Ложье
Сценарист: Паскаль Ложье
Продюсер: Кевин ДеУолт, Скотт Кеннеди, Жан-Шарль Леви
Оператор: Камал Деркауи
Композитор: Тодд Брайнтон

В ролях: Джессика Бил, Джоделль Ферланд, Уильям Б. Дэвис, Саманта Феррис, Коллин Вилер, Гарвин Санфорд, Джанет Райт, Ив Харлоу, Джон Манн, Тич Грант, Стивен МакХэтти, Джейкоб Дейвис, Кэтрин Рэмдин, Алисия Грэй, Дж. Майкл Грэй, Джош Стрейт

Описание: Действие фильма разворачивается в американском городе Колд Рок, в котором на протяжении многих лет пропадают без вести дети. Местные легенды гласят, что их забирает к себе таинственный высокий человек.

Жительница Колд Рок, медсестра Джулия, не верит в эти легенды до тех пор, пока однажды ночью не обнаруживает, что кровать её сына пуста. Спустившись на первый этаж, она в ужасе видит, как некая тёмная фигура вместе с её сыном покидает дом. Руководствуясь инстинктом, Джулия бросается вслед за ними, пытаясь сделать всё возможное, чтобы вернуть сына, а заодно и получить ответы на вопросы: кто такой этот высокий человек? И что происходит с детьми?


Изображение Изображение

Качество: BDRip (1080p)
Формат: Matroska
Видео: MPEG-4 AVC, 9000 Кбит/с, 1920x800, 23.976 кадр/с
Аудио №1: Русский (АС3, 6 ch, 448 Кбит/с)
Аудио №2: Английский (АС3, 6 ch, 640 Кбит/с)

MediaInfo
Общее
Уникальный идентификатор : 183537592524949301462251576354179159587 (0x8A140DF619DF8E76A899D4EA06549623)
Полное имя : H:\The.Tall.Man.2012.BDRip1080p.nntt.org.mkv
Формат : Matroska
Версия формата : Version 2
Размер файла : 7,44 Гбайт
Продолжительность : 1 ч. 45 м.
Общий поток : 10,1 Мбит/сек
Название фильма : The Tall Man (2012) by HDChina
Дата кодирования : UTC 2012-12-08 03:29:43
Программа кодирования : mkvmerge v5.8.0 ('No Sleep / Pillow') built on Sep 2 2012 15:37:04
Библиотека кодирования : libebml v1.2.3 + libmatroska v1.3.0

Видео
Идентификатор : 1
Формат : AVC
Формат/Информация : Advanced Video Codec
Профиль формата : High@L4.1
Параметр CABAC формата : Да
Параметр ReFrames формата : 5 кадров
Идентификатор кодека : V_MPEG4/ISO/AVC
Продолжительность : 1 ч. 45 м.
Битрейт : 9000 Кбит/сек
Ширина : 1920 пикселей
Высота : 800 пикселей
Соотношение сторон : 2,40:1
Режим частоты кадров : Постоянный
Частота кадров : 23,976 кадра/сек
Цветовое пространство : YUV
Субдискретизация насыщенности : 4:2:0
Битовая глубина : 8 бит
Тип развёртки : Прогрессивная
Бит/(Пиксели*Кадры) : 0.244
Размер потока : 6,49 Гбайт (87%)
Заголовок : The Tall Man (2012)
Библиотека кодирования : x264 core 128 r2216+686+33 35a79b6 tMod+MixAQ [8-bit@4:2:0 X86_64]
Настройки программы : cabac=1 / ref=5 / deblock=1:-3:-3 / analyse=0x3:0x113 / me=umh / subme=11 / psy=1 / fade_compensate=0.00 / psy_rd=1.05:0.00 / mixed_ref=1 / me_range=48 / chroma_me=1 / trellis=2 / 8x8dct=1 / cqm=0 / deadzone=21,11 / fast_pskip=0 / chroma_qp_offset=-2 / threads=18 / lookahead_threads=3 / sliced_threads=0 / nr=0 / decimate=0 / interlaced=0 / bluray_compat=0 / constrained_intra=0 / fgo=5 / bframes=8 / b_pyramid=2 / b_adapt=2 / b_bias=0 / direct=3 / weightb=1 / open_gop=0 / weightp=2 / keyint=240 / keyint_min=24 / scenecut=40 / intra_refresh=0 / rc_lookahead=240 / rc=2pass / mbtree=1 / bitrate=9000 / ratetol=1.0 / qcomp=0.70 / qpmin=0 / qpmax=69 / qpstep=4 / cplxblur=20.0 / qblur=0.5 / ip_ratio=1.15 / aq=4 / aq-strength=0.95 / aq-sensitivity=10.00 / aq-ifactor=1.00 / aq-pfactor=1.00 / aq-bfactor=1.00 / aq2=0
Язык : English
Default : Да
Forced : Нет

Аудио #1
Идентификатор : 2
Формат : AC-3
Формат/Информация : Audio Coding 3
Расширение режима : CM (complete main)
Параметр Endianness формата : Big
Идентификатор кодека : A_AC3
Продолжительность : 1 ч. 45 м.
Вид битрейта : Постоянный
Битрейт : 448 Кбит/сек
Каналы : 6 каналов
Расположение каналов : Front: L C R, Side: L R, LFE
Частота : 48,0 КГц
Битовая глубина : 16 бит
Метод сжатия : С потерями
Размер потока : 339 Мбайт (4%)
Заголовок : AC3 / 5.1 ch / 448 kbps / Русский MVO R5
Язык : Russian
Default : Да
Forced : Нет

Аудио #2
Идентификатор : 3
Формат : AC-3
Формат/Информация : Audio Coding 3
Расширение режима : CM (complete main)
Параметр Endianness формата : Big
Идентификатор кодека : A_AC3
Продолжительность : 1 ч. 45 м.
Вид битрейта : Постоянный
Битрейт : 640 Кбит/сек
Каналы : 6 каналов
Расположение каналов : Front: L C R, Side: L R, LFE
Частота : 48,0 КГц
Битовая глубина : 16 бит
Метод сжатия : С потерями
Размер потока : 484 Мбайт (6%)
Заголовок : AC3 / 5.1 ch / 640 kbps / Английский original BD
Язык : English
Default : Нет
Forced : Нет

Текст
Идентификатор : 4
Формат : UTF-8
Идентификатор кодека : S_TEXT/UTF8
Идентификатор кодека/Информация : UTF-8 Plain Text
Заголовок : Full
Язык : Russian
Default : Нет
Forced : Нет

Меню
00:00:00.000 : en:00:00:00.000
00:10:40.431 : en:00:10:40.431
00:18:55.092 : en:00:18:55.092
00:27:42.494 : en:00:27:42.494
00:33:16.620 : en:00:33:16.620
00:44:46.893 : en:00:44:46.893
00:58:29.423 : en:00:58:29.423
01:06:48.880 : en:01:06:48.880
01:16:53.651 : en:01:16:53.651
01:24:57.718 : en:01:24:57.718
01:34:33.251 : en:01:34:33.251
01:40:11.964 : en:01:40:11.964
Свернуть
Знаете ли вы, что...
Когда шериф подъезжает к зданию с Джулией на заднем сиденье, ей удается сбежать из машины, просто открыв дверь изнутри. Современные полицейские машины спроектированы таким образом, что подозреваемый не может сбежать независимо от того, закрыта дверь или открыта, потому как открывается она только снаружи.

Во время нападения собаки рука, которую кусает собака, меняется (то левая, то правая).

После того, как грузовик переворачивается, но перед тем, как пассажирская дверь откроется, четко видно отпечатки ботинок на двери.

В сцене, где на Дженни (Джессика Бил) бросается собака, когда она открывает дверь грузовика, хорошо видно тяжелую защитную подушку на ее руке.
Свернуть
Скриншоты
Изображение
Изображение
Изображение
Изображение
Изображение
Свернуть
Не в сети
Профиль  
 Добавлено: 2012-12-10 21:50 (спустя 2 дня 10 часов)
Console V.I.P.
Аватара пользователя
Стаж: 9 лет
Сообщений: 1456
Спасибок: 690
Лайков: 12
Серьезное кино и снято очень качественно
_________________
МАСТЕР ПО ИГРОВЫМ КОНСОЛЯМ
ПРОДАЖА И МОДЕРНИЗАЦИЯ ИГРОВЫХ КОНСОЛЕЙ

УСЛУГИ И КОНТАКТЫ (нажать чтобы посмотреть)
icq: 378004868 тел: 89049149337
Не в сети
Профиль  
 Добавлено: 2012-12-12 17:42 (спустя 1 день 19 часов)
Стаж: 5 лет 6 месяцев
Сообщений: 11
Шлак, а не фильм
Не в сети
Профиль  
 Добавлено: 2012-12-16 15:26 (спустя 3 дня)
Аватара пользователя
Стаж: 7 лет 6 месяцев
Возраст: 51
Сообщений: 1782
Лайков: 1402
Малобюджетный фильм США-Франция. В общем, Канада, наверное. Я не ждал от него ничего, собирался посмотреть минут десять, а потом стереть. Канадский триллероужастик 10 сорта. Сколь можно?

Однако досмотрел до конца и отложил в копилку, чтобы посмотреть еще раз, и даже пишу микрорецензию в ННТТ, чего не делал уже сто лет, ибо фильм оказался заслуживающим внимания, и, даже можно сказать, экстраординарным.

В нем две составляющие, делающие его крайне интересным:
1. Игра Джессики Бил. Здесь, наконец-то, она развернулась на полную катушку. Сделала то, чего я давно от нее ожидал. Я чувствовал, что режиссеры придерживают ее на вторых ролях. Здесь французский режиссер дал ей выстрелить, шарахнуть, как туго сжатой пружине.
2. Опупенный, необычайно грамотно выстроенный сюжет. Тут я не буду широко распространяться, а процитирую пользователя http://www.kinopoisk.ru/user/210021/ из http://www.kinopoisk.ru/user/210021/ Он сказал то, что хотел сказать я. Сказал грамотно.

"Обещанный создателями «Самый шокирующий и неожиданный финал в истории кино после „Шестого Чувства“» буквально развернул ход экранной истории на 180 градусов, а всё это благодаря достаточно оригинальной задумке создателей. Создатели создали образ таинственного похитителя детей, рассказали о ряде похищений и напустили туману. Дальше зритель сам придумал себе историю, мотивы и целый мир. Отсюда и не удивительно, что создатели в финале выдают свою версию происходящего и это можно назвать главным обманом зрителя в этом году. Именно так можно объяснить то, как в середине ленты набирается накал всем известной истории и историю уносит в абсолютно другое русло. Что выдаёт немалое количество действительно неожиданных поворотов сюжета, которые меняют фабулу больше, чем несколько раз. Отсюда можно смело сказать, что такого финала предсказать не сможет никто. Ибо я сам начал догадываться лишь ближе к финалу".

Я тоже был обманут, и получил от этого большое удовольствие. Фильм явно недооцененный, очень стоящий и нестандартный. Господа нижегородцы с мозгами внутре головы, рекомендую скачать и посмотреть! Ё!
Не в сети
Профиль  
 Добавлено: 2012-12-16 17:14 (спустя 1 час 47 минут)
Аватара пользователя
Стаж: 9 лет 1 месяц
Сообщений: 42
Лайков: 3
адептам юю посвящается :)
Не в сети
Профиль  
 Добавлено: 2012-12-16 17:14 (спустя 0 секунд)
Аватара пользователя
Стаж: 9 лет 1 месяц
Сообщений: 42
Лайков: 3
адептам юю посвящается :)
Не в сети
Профиль  
Начать новую темуОтветить на тему  [ Сообщений: 6 ] 
Вы не можете начинать темы
Вы не можете отвечать на сообщения
Вы не можете редактировать свои сообщения
Вы не можете удалять свои сообщения
cron