Правила форума

  • В этом разделе создание новых тем Запрещено.
  • Для создания новых тем пользуйтесь Корневым разделом DVD и HD фильмы.
Начать новую темуОтветить на тему  [ Сообщений: 4 ] 
Торрент файл
Размер: 5.34 GB • Зарегистрирован: 3 года 11 месяцев • Статус: Проверено
Скачан: 9 раз • Желающих скачать: 0 • Поблагодарили: 1 раз
 Раздают: 0  |  0 KB/s  ]   Качают: 0  |  0 KB/s  ] 
 Полного источника не было 3 года 2 месяца 
Сообщения
 Добавлено: 2012-12-09 17:25
Руководитель релиз-группы
Аватара пользователя
Стаж: 7 лет 4 месяца
Возраст: 31
Сообщений: 3407
Спасибок: 46729
Лайков: 5
Изображение

Верзила
The Tall Man


Год выпуска: 2012
Страна: Канада, Франция
Слоган: «Fear Takes a New Shape»
Жанр: триллер, драма, криминал, детектив
Продолжительность: 01:45:41
Перевод: Профессиональный (многоголосый, закадровый) [лицензия]
Режиссер: Паскаль Ложье
Сценарий: Паскаль Ложье
Продюсер: Жан-Шарль Леви, Клементе Мисерез, Кевин ДеУолт, Скотт Кеннеди, Ронда Бэйкер
Оператор: Камал Деркауи
Композитор: Тодд Брайнтон
В ролях: Джессика Бил, Джоделль Ферланд, Уильям Б. Дэвис, Саманта Феррис, Коллин Вилер, Гарвин Санфорд, Джанет Райт, Ив Харлоу, Джон Манн, Тич Грант, Стивен МакХэтти, Ферн Дауни
Бюджет: $18 200 000
Сборы в мире: $5 212 903
Описание: Действие фильма разворачивается в американском городе Колд Рок, в котором на протяжении многих лет пропадают без вести дети. Местные легенды гласят, что их забирает к себе таинственный высокий человек.
Жительница Колд Рок, медсестра Джулия, не верит в эти легенды до тех пор, пока однажды ночью не обнаруживает, что кровать её сына пуста. Спустившись на первый этаж, она в ужасе видит, как некая тёмная фигура вместе с её сыном покидает дом. Руководствуясь инстинктом, Джулия бросается вслед за ними, пытаясь сделать всё возможное, чтобы вернуть сына, а заодно и получить ответы на вопросы: кто такой этот высокий человек? И что происходит с детьми?

Изображение
MPAA: Изображение
Мировая премьера: 12 марта 2012
Релиз на DVD: 11 декабря 2012, «Парадиз Медиа»
Раздача группы: Изображение
Качество: BDRip, 720p
Формат: Matroska
Видео: AVC; 1280x534 (2.35:1); 5126 Kbps; 23,976 fps; 0,313 bit/pixel
Аудио №1: AC3; 448 Kbps; CBR; 6 ch Russian
Аудио №2: DTS; 1509 Kbps; CBR; 6 ch; 24 bit
Субтитры: русские, английские
mediainfo
Формат : Matroska
Версия формата : Version 2
Размер файла : 5,34 Гбайт
Продолжительность : 1 ч. 45 м.
Общий поток : 7228 Кбит/сек
Дата кодирования : UTC 2012-12-08 02:17:20
Программа кодирования : mkvmerge v2.9.9 ('Tutu') built on Nov 25 2009 21:13:32
Библиотека кодирования : libebml v0.7.9 + libmatroska v0.8.1

Видео
Идентификатор : 1
Формат : AVC
Формат/Информация : Advanced Video Codec
Профиль формата : High@L4.1
Параметр CABAC формата : Да
Параметр ReFrames формата : 12 кадров
Идентификатор кодека : V_MPEG4/ISO/AVC
Продолжительность : 1 ч. 45 м.
Битрейт : 5273 Кбит/сек
Ширина : 1280 пикселей
Высота : 534 пикселя
Соотношение сторон : 2,40:1
Частота кадров : 23,976 кадра/сек
Цветовое пространство : YUV
Субдискретизация насыщенности : 4:2:0
Битовая глубина : 8 бит
Тип развёртки : Прогрессивная
Бит/(Пиксели*Кадры) : 0.322
Размер потока : 3,78 Гбайт (71%)
Заголовок : Verzila.2012.P.BDRip.720p.NNM-CLUB
Библиотека кодирования : x264 core 125 r2200+677M 3a754e7
Настройки программы : cabac=1 / ref=12 / deblock=1:1:1 / analyse=0x3:0x113 / me=umh / subme=10 / psy=1 / fade_compensate=0.00 / psy_rd=1.05:0.10 / mixed_ref=1 / me_range=32 / chroma_me=1 / trellis=2 / 8x8dct=1 / cqm=0 / deadzone=21,11 / fast_pskip=0 / chroma_qp_offset=-2 / threads=6 / lookahead_threads=1 / sliced_threads=0 / nr=0 / decimate=1 / interlaced=0 / bluray_compat=0 / constrained_intra=0 / fgo=0 / bframes=6 / b_pyramid=2 / b_adapt=2 / b_bias=0 / direct=3 / weightb=1 / open_gop=0 / weightp=2 / keyint=250 / keyint_min=23 / scenecut=40 / intra_refresh=0 / rc=2pass / mbtree=0 / bitrate=5273 / ratetol=1.0 / qcomp=0.70 / qpmin=0 / qpmax=69 / qpstep=4 / cplxblur=20.0 / qblur=0.5 / ip_ratio=1.40 / pb_ratio=1.30 / aq=2:1.00
Язык : English

Аудио #1
Идентификатор : 2
Формат : AC-3
Формат/Информация : Audio Coding 3
Расширение режима : CM (complete main)
Идентификатор кодека : A_AC3
Продолжительность : 1 ч. 45 м.
Вид битрейта : Постоянный
Битрейт : 448 Кбит/сек
Каналы : 6 каналов
Расположение каналов : Front: L C R, Side: L R, LFE
Частота : 48,0 КГц
Битовая глубина : 16 бит
Метод сжатия : С потерями
Размер потока : 339 Мбайт (6%)
Заголовок : AC3.448.Kbps (6ch) Russian
Язык : Russian

Аудио #2
Идентификатор : 3
Формат : DTS
Формат/Информация : Digital Theater Systems
Идентификатор кодека : A_DTS
Продолжительность : 1 ч. 45 м.
Вид битрейта : Постоянный
Битрейт : 1510 Кбит/сек
Каналы : 6 каналов
Расположение каналов : Front: L C R, Side: L R, LFE
Частота : 48,0 КГц
Битовая глубина : 24 бит
Метод сжатия : С потерями
Задержка видео : 11 мс.
Размер потока : 1,11 Гбайт (21%)
Заголовок : DTS.1510.Kbps (6ch) English
Язык : English

Текст #1
Идентификатор : 4
Формат : UTF-8
Идентификатор кодека : S_TEXT/UTF8
Идентификатор кодека/Информация : UTF-8 Plain Text
Заголовок : Russian (Full)
Язык : Russian

Текст #2
Идентификатор : 5
Формат : UTF-8
Идентификатор кодека : S_TEXT/UTF8
Идентификатор кодека/Информация : UTF-8 Plain Text
Заголовок : English (Full)
Язык : English

Меню
00:00:00.000 : en:00:00:00.000
00:10:40.431 : en:00:10:40.431
00:18:55.092 : en:00:18:55.092
00:27:42.494 : en:00:27:42.494
00:33:16.620 : en:00:33:16.620
00:44:46.893 : en:00:44:46.893
00:58:29.423 : en:00:58:29.423
01:06:48.880 : en:01:06:48.880
01:16:53.651 : en:01:16:53.651
01:24:57.718 : en:01:24:57.718
01:34:33.251 : en:01:34:33.251
01:40:11.964 : en:01:40:11.964

Свернуть
"Знаете ли Вы, что..."
  • Когда шериф подъезжает к зданию с Джулией на заднем сиденье, ей удается сбежать из машины, просто открыв дверь изнутри. Современные полицейские машины спроектированы таким образом, что подозреваемый не может сбежать независимо от того, закрыта дверь или открыта, потому как открывается она только снаружи.
Свернуть
Скриншоты

Изображение

Изображение

Изображение

Изображение

Изображение
Свернуть
Не в сети
Профиль  
 Добавлено: 2012-12-16 15:26 (спустя 6 дней)
Аватара пользователя
Стаж: 7 лет 5 месяцев
Возраст: 51
Сообщений: 1772
Лайков: 1386
Малобюджетный фильм США-Франция. В общем, Канада, наверное. Я не ждал от него ничего, собирался посмотреть минут десять, а потом стереть. Канадский триллероужастик 10 сорта. Сколь можно?

Однако досмотрел до конца и отложил в копилку, чтобы посмотреть еще раз, и даже пишу микрорецензию в ННТТ, чего не делал уже сто лет, ибо фильм оказался заслуживающим внимания, и, даже можно сказать, экстраординарным.

В нем две составляющие, делающие его крайне интересным:
1. Игра Джессики Бил. Здесь, наконец-то, она развернулась на полную катушку. Сделала то, чего я давно от нее ожидал. Я чувствовал, что режиссеры придерживают ее на вторых ролях. Здесь французский режиссер дал ей выстрелить, шарахнуть, как туго сжатой пружине.
2. Опупенный, необычайно грамотно выстроенный сюжет. Тут я не буду широко распространяться, а процитирую пользователя http://www.kinopoisk.ru/user/210021/ из http://www.kinopoisk.ru/user/210021/ Он сказал то, что хотел сказать я. Сказал грамотно.

"Обещанный создателями «Самый шокирующий и неожиданный финал в истории кино после „Шестого Чувства“» буквально развернул ход экранной истории на 180 градусов, а всё это благодаря достаточно оригинальной задумке создателей. Создатели создали образ таинственного похитителя детей, рассказали о ряде похищений и напустили туману. Дальше зритель сам придумал себе историю, мотивы и целый мир. Отсюда и не удивительно, что создатели в финале выдают свою версию происходящего и это можно назвать главным обманом зрителя в этом году. Именно так можно объяснить то, как в середине ленты набирается накал всем известной истории и историю уносит в абсолютно другое русло. Что выдаёт немалое количество действительно неожиданных поворотов сюжета, которые меняют фабулу больше, чем несколько раз. Отсюда можно смело сказать, что такого финала предсказать не сможет никто. Ибо я сам начал догадываться лишь ближе к финалу".

Я тоже был обманут, и получил от этого большое удовольствие. Фильм явно недооцененный, очень стоящий и нестандартный. Господа нижегородцы с мозгами внутре головы, рекомендую скачать и посмотреть! Ё!
В сети
Профиль  
 Добавлено: 2012-12-16 16:01 (спустя 35 минут)
Супермодератор Инквизиции
Аватара пользователя
Стаж: 8 лет 3 месяца
Возраст: 51
Сообщений: 37874
Спасибок: 1089
Лайков: 2725
Falconet
посты набиваешь? :-D
_________________
████████████ - сотри монеткой, чтобы получить пароль от этого аккаунта
Пират у копираста спиратил пиастры, копираст у пирата скопипастил фрегат :ps_ih:
Не в сети
Профиль  
 Добавлено: 2012-12-21 12:52 (спустя 4 дня)
Аватара пользователя
Стаж: 7 лет 5 месяцев
Возраст: 51
Сообщений: 1772
Лайков: 1386
Basil

Нет, что вы. Не писал комментов уже несколько месяцев и вряд ли еще скоро напишу -- некогда, работа замучила. Просто иногда, когда какой-нибудь малоизвестный фильм действительно нравится, хочется известить об этом пользователей торрента. :)
В сети
Профиль  
Начать новую темуОтветить на тему  [ Сообщений: 4 ] 
Вы не можете начинать темы
Вы не можете отвечать на сообщения
Вы не можете редактировать свои сообщения
Вы не можете удалять свои сообщения