Правила форума

  • В этом разделе создание новых тем Запрещено.
  • Для создания новых тем пользуйтесь Корневым разделом DVD и HD фильмы.
Начать новую темуОтветить на тему  [ Сообщений: 3 ] 
Торрент файл
Размер: 27.25 GB • Зарегистрирован: 3 года 11 месяцев • Статус: Проверено
Скачан: 15 раз • Желающих скачать: 0 • Поблагодарили: 9 раз
 Раздают: 0  |  0 KB/s  ]   Качают: 0  |  0 KB/s  ] 
 Полного источника не было 2 года 11 месяцев 
Сообщения
 Добавлено: 2013-01-09 18:16
Top-releaser
Аватара пользователя
Стаж: 6 лет 7 месяцев
Сообщений: 2078
Спасибок: 3230
Лайков: 9
Изображение

«Весёлые» каникулы
Get the Gringo


Год выпуска: 2011
Страна: США
Слоган: «Plan your getaway»
Жанр: боевик, триллер, драма, криминал
Продолжительность: 01:35:59
Перевод: Профессиональный (полное дублирование)
Режиссер: Адриан Грюнберг
Сценарий: Мэл Гибсон, Адриан Грюнберг, Стэйси Перски
Продюсер: Мэл Гибсон, Брюс Дэвей, Стэйси Перски, Вики Кристиансон
Оператор: Бенуа Деби
Композитор: Антонио Пинто
В ролях: Мэл Гибсон, Кевин Эрнандез, Долорес Эредия, Хесус Очоа, Даниэль Хименес Качо, Питер Герети, Роберто Соса
Бюджет: $20 000 000
Сборы в России: $839 686
Мировая премьера: 15 марта 2012
Релиз на DVD: 29 мая 2012, «West Video»
Релиз на Blu-ray: 29 мая 2012, «West Video»
Описание: Лента расскажет о пойманном мексиканскими властями преступнике, заключенном в полную наркотиков и насилия тюрьму.
Раздача группы: Изображение

Изображение User Rating: 7.267 (13 928)
Изображение User Rating: 7.10 (38 745)
MPAA: R - Лицам до 17 лет обязательно присутствие взрослого
Качество: BD-Remux, 1080p
Формат: Matroska
Видео: AVC; 1920x1080 (16:9); 23,976 fps
Аудио №1: Russian; DTS; 754 Kbps; CBR; 6 ch; 24 bit - дубляж
Аудио №2: Russian; DTS-HD; VBR; 6 ch; 24 bit - Багичев
Аудио №3: Ukrainian; AC3; 384 Kbps; CBR; 6 ch - дубляж
Аудио №4: English; DTS-HD; VBR; 6 ch; 24 bit

Субтитры: Russian, English

MediaInfo
Общее
Уникальный идентификатор : 190503285744779904380952614934183073654 (0x8F5199270B13819BB16A480D5026D776)
Полное имя : Z:\WWW\TR-Downloads\Get.The.Gringo.2012.BDRemux.2xRus.Ukr.Eng.mkv
Формат : Matroska
Версия формата : Version 2
Размер файла : 27,3 Гбайт
Продолжительность : 1 ч. 35 м.
Режим общего битрейта : Переменный
Общий поток : 40,6 Мбит/сек
Дата кодирования : UTC 2012-07-08 18:56:37
Программа кодирования : mkvmerge v5.5.0 ('Healer') built on Apr 6 2012 21:43:24
Библиотека кодирования : libebml v1.2.3 + libmatroska v1.3.0

Видео
Идентификатор : 1
Формат : AVC
Формат/Информация : Advanced Video Codec
Профиль формата : High@L4.1
Параметр CABAC формата : Да
Параметр ReFrames формата : 2 кадра
Идентификатор кодека : V_MPEG4/ISO/AVC
Продолжительность : 1 ч. 35 м.
Вид битрейта : Переменный
Битрейт : 34,7 Мбит/сек
Максимальный битрейт : 40,0 Мбит/сек
Ширина : 1920 пикселей
Высота : 1080 пикселей
Соотношение сторон : 16:9
Частота кадров : 23,976 кадра/сек
Цветовое пространство : YUV
Субдискретизация насыщенности : 4:2:0
Битовая глубина : 8 бит
Тип развёртки : Прогрессивная
Бит/(Пиксели*Кадры) : 0.698
Размер потока : 23,3 Гбайт (85%)
Заголовок : Get The Gringo / How I Spent My Summer Vacation
Default : Да
Forced : Нет

Аудио #1
Идентификатор : 2
Формат : DTS
Формат/Информация : Digital Theater Systems
Идентификатор кодека : A_DTS
Продолжительность : 1 ч. 35 м.
Вид битрейта : Постоянный
Битрейт : 755 Кбит/сек
Каналы : 6 каналов
Расположение каналов : Front: L C R, Side: L R, LFE
Частота : 48,0 КГц
Битовая глубина : 24 бит
Метод сжатия : С потерями
Размер потока : 518 Мбайт (2%)
Заголовок : Дубляж
Язык : Russian
Default : Да
Forced : Нет

Аудио #2
Идентификатор : 3
Формат : DTS
Формат/Информация : Digital Theater Systems
Профиль формата : MA / Core
Идентификатор кодека : A_DTS
Продолжительность : 1 ч. 35 м.
Вид битрейта : Переменный
Битрейт : 2113 Кбит/сек / 1510 Кбит/сек
Каналы : 6 каналов
Расположение каналов : Front: L C R, Side: L R, LFE
Частота : 48,0 КГц
Битовая глубина : 24 бит
Метод сжатия : Без потерь / Lossy
Заголовок : Одноголосый закадровый - А. Багичев
Язык : Russian
Default : Нет
Forced : Нет

Аудио #3
Идентификатор : 4
Формат : AC-3
Формат/Информация : Audio Coding 3
Расширение режима : CM (complete main)
Параметр Endianness формата : Big
Идентификатор кодека : A_AC3
Продолжительность : 1 ч. 35 м.
Вид битрейта : Постоянный
Битрейт : 384 Кбит/сек
Каналы : 6 каналов
Расположение каналов : Front: L C R, Side: L R, LFE
Частота : 48,0 КГц
Битовая глубина : 16 бит
Метод сжатия : С потерями
Размер потока : 264 Мбайт (1%)
Заголовок : Дубляж
Язык : Ukrainian
Default : Нет
Forced : Нет

Аудио #4
Идентификатор : 5
Формат : DTS
Формат/Информация : Digital Theater Systems
Профиль формата : MA / Core
Идентификатор кодека : A_DTS
Продолжительность : 1 ч. 35 м.
Вид битрейта : Переменный
Битрейт : 1867 Кбит/сек / 1510 Кбит/сек
Каналы : 6 каналов
Расположение каналов : Front: L C R, Side: L R, LFE
Частота : 48,0 КГц
Битовая глубина : 24 бит
Метод сжатия : Без потерь / Lossy
Заголовок : Оригинал
Язык : Russian
Default : Нет
Forced : Нет

Текст #1
Идентификатор : 6
Формат : UTF-8
Идентификатор кодека : S_TEXT/UTF8
Идентификатор кодека/Информация : UTF-8 Plain Text
Язык : Russian
Default : Нет
Forced : Нет

Текст #2
Идентификатор : 7
Формат : UTF-8
Идентификатор кодека : S_TEXT/UTF8
Идентификатор кодека/Информация : UTF-8 Plain Text
Язык : English
Default : Нет
Forced : Нет

Текст #3
Идентификатор : 8
Формат : UTF-8
Идентификатор кодека : S_TEXT/UTF8
Идентификатор кодека/Информация : UTF-8 Plain Text
Заголовок : SDH
Язык : English
Default : Нет
Forced : Нет

Меню
00:00:00.000 : en:00:00:00.000
00:06:04.781 : en:00:06:04.781
00:10:42.100 : en:00:10:42.100
00:13:47.577 : en:00:13:47.577
00:16:02.795 : en:00:16:02.795
00:18:40.745 : en:00:18:40.745
00:23:49.970 : en:00:23:49.970
00:26:29.463 : en:00:26:29.463
00:30:06.263 : en:00:30:06.263
00:35:37.594 : en:00:35:37.594
00:38:36.230 : en:00:38:36.230
00:40:50.698 : en:00:40:50.698
00:45:16.130 : en:00:45:16.130
00:51:05.479 : en:00:51:05.479
00:54:01.279 : en:00:54:01.279
00:57:31.197 : en:00:57:31.197
01:00:53.399 : en:01:00:53.399
01:05:44.273 : en:01:05:44.273
01:09:17.862 : en:01:09:17.862
01:13:33.158 : en:01:13:33.158
01:18:43.093 : en:01:18:43.093
01:23:20.704 : en:01:23:20.704
01:25:49.185 : en:01:25:49.185
01:28:19.377 : en:01:28:19.377
Свернуть
Скриншоты

Изображение
Изображение
Изображение
Изображение
Изображение
Свернуть
Не в сети
Профиль  
 Добавлено: 2013-01-09 18:40 (спустя 24 минуты)
Стаж: 7 лет 2 месяца
Сообщений: 19
Лайков: 6
классный фильм)
Не в сети
Профиль  
 Добавлено: 2013-01-09 19:49 (спустя 1 час 8 минут)
Аватара пользователя
Стаж: 9 лет 1 месяц
Сообщений: 9
дайте скорости :sh_ok:
Не в сети
Профиль  
Начать новую темуОтветить на тему  [ Сообщений: 3 ] 
Вы не можете начинать темы
Вы не можете отвечать на сообщения
Вы не можете редактировать свои сообщения
Вы не можете удалять свои сообщения