Правила форума

  • В этом разделе создание новых тем Запрещено.
  • Для создания новых тем пользуйтесь Корневым разделом DVD и HD фильмы.
Начать новую темуОтветить на тему  [ 1 сообщение ] 
Торрент файл
Размер: 4.9 GB • Зарегистрирован: 4 года 4 месяца • Статус: Проверено
Скачан: 24 раза • Желающих скачать: 0 • Поблагодарили: 6 раз
 Раздают: 0  |  0 KB/s  ]   Качают: 0  |  0 KB/s  ] 
 Полного источника не было 3 года 1 месяц 
Сообщения
 Добавлено: 2012-07-18 16:40
Top-seeder
Аватара пользователя
Стаж: 9 лет
Сообщений: 1399
Спасибок: 28654
Лайков: 8
«Весёлые» каникулы

Get the Gringo / How I Spent My Summer Vacation

«Plan your getaway»

Изображение

Страна: США
Жанр: боевик, триллер, драма, криминал
Год выпуска: 2012

Продолжительность: 01:35:59
Перевод 1: Профессиональный (полное дублирование) (русский, украинский)
Перевод 2: Одноголосый закадровый (А. Багичев)
Субтитры: русские, английские

Режиссер: Адриан Грюнберг / Adrian Grunberg

В ролях: Мэл Гибсон (Driver), Кевин Эрнандез (Kid), Долорес Эредия (Kid's Mom), Хесус Очоа (Caracas), Петер Стормаре (Frank), Дин Норрис (Bill), Боб Гантон (Mr. Kaufmann), Скотт Коэн (Frank's Lawyer), София Сиснига (20 Year Old Bombshell), Стефани Николь Лемелин (Frank's Lawyer's Secretary), Патрик Бошо (Surgeon), Жерардо Тарачена (Ramiro)
Дублёры: Михаил Георгиу (Driver), Всеволод Кузнецов (Frank), Михаил Тихонов (Carnal), Борис Быстров, Алексей Мясников, Наталья Гребенкина, Василий Бочкарёв, Андрей Градов

Описание: Лента расскажет о пойманном мексиканскими властями преступнике, заключенном в полную наркотиков и насилия тюрьму...

Лицам до 17 лет обязательно присутствие взрослого.

Качество: BDRip
Исходник: Blu-Ray AVC DTS-HD MA 5.1-HDChina
Формат: Matroska
Видеокодек: AVC
Аудиокодек: AC3
Видео: MPEG-4 AVC Video / 1280x534 (2.40:1) / 5200 kbps / 720p / 23.976 fps / 16:9 / High Profile 4.1
Аудио: Russian / Dolby Digital Audio / 5.1 / 48 kHz / 448 kbps - дубляж
Аудио: Russian / Dolby Digital Audio / 5.1 / 48 kHz / 640 kbps - Багичев
Аудио: Ukrainian / Dolby Digital Audio / 5.1 / 48 kHz / 384 kbps - дубляж
Аудио: English / Dolby Digital Audio / 5.1 / 48 kHz / 640 kbps
Субтитры №1: Russian (R5)
Субтитры №2: English
Субтитры №3: English SDH

MI
Общее
Уникальный идентификатор : 216625263257251774777454596277867739996 (0xA2F88214450A66F3B32E8721A3C97B5C)
Полное имя : D:\Закачки\«Весёлые» каникулы.mkv
Формат : Matroska
Размер файла : 4,90 Гбайт
Продолжительность : 1 ч. 36 м.
Общий поток : 7313 Кбит/сек
Дата кодирования : UTC 2012-07-10 21:36:34
Программа кодирования : mkvmerge v5.5.0 ('Healer') built on Apr 6 2012 21:43:24
Библиотека кодирования : libebml v1.2.3 + libmatroska v1.3.0

Видео
Идентификатор : 1
Формат : AVC
Формат/Информация : Advanced Video Codec
Профиль формата : High@L4.1
Параметр CABAC формата : Да
Параметр ReFrames формата : 9 кадров
Идентификатор кодека : V_MPEG4/ISO/AVC
Продолжительность : 1 ч. 36 м.
Битрейт : 5200 Кбит/сек
Ширина : 1280 пикс.
Высота : 534 пикс.
Соотношение сторон : 2,35:1
Частота кадров : 23,976 кадр/сек
Цветовое пространство : YUV
Подвыборка цветности : 4:2:0
Битовая глубина : 8 бит
Тип развёртки : Прогрессивная
Бит/(Пиксели*Кадры) : 0.317
Размер потока : 3,39 Гбайт (69%)
Заголовок : Get the Gringo / How I Spent My Summer Vacation (2012)
Библиотека кодирования : x264 core 120 r2119 0637cd6
Настройки программы : cabac=1 / ref=9 / deblock=1:-3:-3 / analyse=0x3:0x133 / me=umh / subme=11 / psy=1 / psy_rd=0.90:0.00 / mixed_ref=1 / me_range=48 / chroma_me=1 / trellis=2 / 8x8dct=1 / cqm=0 / deadzone=21,11 / fast_pskip=0 / chroma_qp_offset=-2 / threads=12 / sliced_threads=0 / nr=0 / decimate=0 / interlaced=0 / bluray_compat=0 / constrained_intra=0 / bframes=8 / b_pyramid=2 / b_adapt=2 / b_bias=0 / direct=3 / weightb=1 / open_gop=0 / weightp=2 / keyint=250 / keyint_min=23 / scenecut=40 / intra_refresh=0 / rc_lookahead=40 / rc=2pass / mbtree=1 / bitrate=5200 / ratetol=1.0 / qcomp=0.60 / qpmin=0 / qpmax=69 / qpstep=4 / cplxblur=20.0 / qblur=0.5 / ip_ratio=1.40 / aq=2:0.80
Язык : English

Аудио #1
Идентификатор : 2
Формат : AC-3
Формат/Информация : Audio Coding 3
Расширение режима : CM (complete main)
Идентификатор кодека : A_AC3
Продолжительность : 1 ч. 36 м.
Вид битрейта : Постоянный
Битрейт : 448 Кбит/сек
Каналы : 6 каналов
Расположение каналов : Front: L C R, Side: L R, LFE
Частота : 48,0 КГц
Битовая глубина : 16 бит
Метод сжатия : С потерями
Размер потока : 308 Мбайт (6%)
Заголовок : Дубляж
Язык : Russian

Аудио #2
Идентификатор : 3
Формат : AC-3
Формат/Информация : Audio Coding 3
Расширение режима : CM (complete main)
Идентификатор кодека : A_AC3
Продолжительность : 1 ч. 36 м.
Вид битрейта : Постоянный
Битрейт : 640 Кбит/сек
Каналы : 6 каналов
Расположение каналов : Front: L C R, Side: L R, LFE
Частота : 48,0 КГц
Битовая глубина : 16 бит
Метод сжатия : С потерями
Размер потока : 439 Мбайт (9%)
Заголовок : Одноголосый закадровый - А. Багичев
Язык : Russian

Аудио #3
Идентификатор : 4
Формат : AC-3
Формат/Информация : Audio Coding 3
Расширение режима : CM (complete main)
Идентификатор кодека : A_AC3
Продолжительность : 1 ч. 36 м.
Вид битрейта : Постоянный
Битрейт : 384 Кбит/сек
Каналы : 6 каналов
Расположение каналов : Front: L C R, Side: L R, LFE
Частота : 48,0 КГц
Битовая глубина : 16 бит
Метод сжатия : С потерями
Размер потока : 264 Мбайт (5%)
Заголовок : Дубляж
Язык : Ukrainian

Аудио #4
Идентификатор : 5
Формат : AC-3
Формат/Информация : Audio Coding 3
Расширение режима : CM (complete main)
Идентификатор кодека : A_AC3
Продолжительность : 1 ч. 36 м.
Вид битрейта : Постоянный
Битрейт : 640 Кбит/сек
Каналы : 6 каналов
Расположение каналов : Front: L C R, Side: L R, LFE
Частота : 48,0 КГц
Битовая глубина : 16 бит
Метод сжатия : С потерями
Размер потока : 439 Мбайт (9%)
Заголовок : Оригинал
Язык : English

Текст #1
Идентификатор : 6
Формат : UTF-8
Идентификатор кодека : S_TEXT/UTF8
Идентификатор кодека/Информация : UTF-8 Plain Text
Язык : Russian

Текст #2
Идентификатор : 7
Формат : UTF-8
Идентификатор кодека : S_TEXT/UTF8
Идентификатор кодека/Информация : UTF-8 Plain Text
Язык : English

Текст #3
Идентификатор : 8
Формат : UTF-8
Идентификатор кодека : S_TEXT/UTF8
Идентификатор кодека/Информация : UTF-8 Plain Text
Заголовок : SDH
Язык : English

Меню
00:00:00.000 : en:00:00:00.000
00:06:04.781 : en:00:06:04.781
00:10:42.100 : en:00:10:42.100
00:13:47.577 : en:00:13:47.577
00:16:02.795 : en:00:16:02.795
00:18:40.745 : en:00:18:40.745
00:23:49.970 : en:00:23:49.970
00:26:29.463 : en:00:26:29.463
00:30:06.263 : en:00:30:06.263
00:35:37.594 : en:00:35:37.594
00:38:36.230 : en:00:38:36.230
00:40:50.698 : en:00:40:50.698
00:45:16.130 : en:00:45:16.130
00:51:05.479 : en:00:51:05.479
00:54:01.279 : en:00:54:01.279
00:57:31.197 : en:00:57:31.197
01:00:53.399 : en:01:00:53.399
01:05:44.273 : en:01:05:44.273
01:09:17.862 : en:01:09:17.862
01:13:33.158 : en:01:13:33.158
01:18:43.093 : en:01:18:43.093
01:23:20.704 : en:01:23:20.704
01:25:49.185 : en:01:25:49.185
01:28:19.377 : en:01:28:19.377

Свернуть

Скриншоты
ИзображениеИзображениеИзображениеИзображениеИзображение
Свернуть
Не в сети
Профиль  
Начать новую темуОтветить на тему  [ 1 сообщение ] 
Вы не можете начинать темы
Вы не можете отвечать на сообщения
Вы не можете редактировать свои сообщения
Вы не можете удалять свои сообщения