Правила форума

  • В этом разделе создание новых тем Запрещено.
  • Для создания новых тем пользуйтесь Корневым разделом DVD и HD фильмы.
Начать новую темуОтветить на тему  [ Сообщений: 3 ] 
Торрент файл
Размер: 8.49 GB • Зарегистрирован: 3 года 10 месяцев • Статус: Проверено
Скачан: 85 раз • Желающих скачать: 0 • Поблагодарили: 17 раз
 Раздают: 0  |  0 KB/s  ]   Качают: 0  |  0 KB/s  ] 
 Полного источника не было 2 года 4 месяца 
Сообщения
 Добавлено: 2013-02-07 04:56
Аватара пользователя
Стаж: 9 лет 1 месяц
Сообщений: 8018
Спасибок: 122256
Лайков: 1194
Весенние надежды / Hope Springs

«Чтобы сохранить отношения, надо научиться нескольким трюкам»

Изображение


Год выпуска: 2012
Страна: Изображение США
Жанр: драма, мелодрама, комедия
Продолжительность: 01:39:52
Перевод: Профессиональный (полное дублирование)


Режиссёр: Дэвид Фрэнкел
Сценарист: Ванесса Тейлор
Продюсер: Тодд Блэк, Гаймон Кеседи, Брайан Белл
Оператор: Флориан Баллхаус
Композитор: Теодор Шапиро

В ролях: Мэрил Стрип, Томми Ли Джонс, Стив Карелл, Джин Смарт, Бен Раппапорт, Марин Айрлэнд, Патрик Дарро, Бретт Райс, Бекки Энн Бэйкер, Элизабет Шу, Чарльз Текман, Дэн Флаэрти, Дамиан Янг, Мими Роджерс, Энн Харада, Джек Хейли, Сьюзэн Миснер, Рони Клэнтон, Джон Средницкий, Мадлен Рускин, Ли Каннингэм, Пол Джуд Летерски, Роджина Беделл-О’Брайен, Стефен Ли Дэвис

Описание: Главные герои фильма — супружеская пара, находящаяся в браке более 30 лет и пытающаяся при помощи доктора Фелда, занимающегося проблемами семейных союзов, разжечь угасшие отношения.

Изображение Изображение

Качество: BDRip (1080p)
Формат: Matroska
Видео: MPEG-4 AVC, 9465 Кбит/с, 1920x800
Аудио №1: Русский (AC3, 6 ch, 448 Кбит/с)
Аудио №2: Русский (DTS, 6 ch, 768 Кбит/с)
Аудио №3: Английский (DTS, 6 ch, 1510 Кбит/с)

MediaInfo
Общее
Уникальный идентификатор : 185935303723378912173044167746522146188 (0x8BE1D6401FD1D0E3A96741E0C48F658C)
Полное имя : H:\Vesennie.nadejdy.2012.BDRip.1080p.nntt.org.mkv
Формат : Matroska
Версия формата : Version 2
Размер файла : 8,49 Гбайт
Продолжительность : 1 ч. 39 м.
Общий поток : 12,2 Мбит/сек
Название фильма : nntt
Дата кодирования : UTC 2013-02-07 02:19:32
Программа кодирования : mkvmerge v5.7.0 ('The Whirlwind') built on Jul 29 2012 15:12:35
Библиотека кодирования : libebml v1.2.3 + libmatroska v1.3.0

Видео
Идентификатор : 1
Формат : AVC
Формат/Информация : Advanced Video Codec
Профиль формата : High@L4.1
Параметр CABAC формата : Да
Параметр ReFrames формата : 5 кадров
Идентификатор кодека : V_MPEG4/ISO/AVC
Продолжительность : 1 ч. 39 м.
Битрейт : 9465 Кбит/сек
Ширина : 1920 пикселей
Высота : 800 пикселей
Соотношение сторон : 2,40:1
Режим частоты кадров : Постоянный
Частота кадров : 23,976 кадра/сек
Цветовое пространство : YUV
Субдискретизация насыщенности : 4:2:0
Битовая глубина : 8 бит
Тип развёртки : Прогрессивная
Бит/(Пиксели*Кадры) : 0.257
Размер потока : 6,43 Гбайт (76%)
Заголовок : Vesennie.nadejdy.2012.L2.BDRip.1080p.NNM-CLUB
Библиотека кодирования : x264 core 128 r2216 198a7ea
Настройки программы : cabac=1 / ref=5 / deblock=1:-3:-3 / analyse=0x3:0x133 / me=umh / subme=10 / psy=1 / psy_rd=1.00:0.00 / mixed_ref=1 / me_range=48 / chroma_me=1 / trellis=2 / 8x8dct=1 / cqm=0 / deadzone=21,11 / fast_pskip=1 / chroma_qp_offset=-2 / threads=12 / lookahead_threads=2 / sliced_threads=0 / nr=0 / decimate=0 / interlaced=0 / bluray_compat=0 / constrained_intra=0 / bframes=7 / b_pyramid=2 / b_adapt=2 / b_bias=0 / direct=3 / weightb=1 / open_gop=0 / weightp=2 / keyint=250 / keyint_min=23 / scenecut=40 / intra_refresh=0 / rc_lookahead=80 / rc=2pass / mbtree=1 / bitrate=9465 / ratetol=1.0 / qcomp=0.60 / qpmin=0 / qpmax=69 / qpstep=4 / cplxblur=20.0 / qblur=0.5 / vbv_maxrate=30000 / vbv_bufsize=30000 / nal_hrd=none / ip_ratio=1.20 / aq=1:1.00
Язык : English
Default : Да
Forced : Нет

Аудио #1
Идентификатор : 2
Формат : AC-3
Формат/Информация : Audio Coding 3
Расширение режима : CM (complete main)
Параметр Endianness формата : Big
Идентификатор кодека : A_AC3
Продолжительность : 1 ч. 39 м.
Вид битрейта : Постоянный
Битрейт : 448 Кбит/сек
Каналы : 6 каналов
Расположение каналов : Front: L C R, Side: L R, LFE
Частота : 48,0 КГц
Битовая глубина : 16 бит
Метод сжатия : С потерями
Размер потока : 320 Мбайт (4%)
Язык : Russian
Default : Нет
Forced : Нет

Аудио #2
Идентификатор : 3
Формат : DTS
Формат/Информация : Digital Theater Systems
Режим : 16
Параметр Endianness формата : Big
Идентификатор кодека : A_DTS
Продолжительность : 1 ч. 39 м.
Вид битрейта : Постоянный
Битрейт : 755 Кбит/сек
Каналы : 6 каналов
Расположение каналов : Front: L C R, Side: L R, LFE
Частота : 48,0 КГц
Битовая глубина : 24 бит
Метод сжатия : С потерями
Размер потока : 539 Мбайт (6%)
Заголовок : DTS 5.1 @ 768 kbps - MVO, R5
Язык : Russian
Default : Да
Forced : Да

Аудио #3
Идентификатор : 4
Формат : DTS
Формат/Информация : Digital Theater Systems
Режим : 16
Параметр Endianness формата : Big
Идентификатор кодека : A_DTS
Продолжительность : 1 ч. 39 м.
Вид битрейта : Постоянный
Битрейт : 1509 Кбит/сек
Каналы : 6 каналов
Расположение каналов : Front: L C R, Side: L R, LFE
Частота : 48,0 КГц
Битовая глубина : 24 бит
Метод сжатия : С потерями
Размер потока : 1,05 Гбайт (12%)
Заголовок : DTS.1510.Kbps (6ch) English
Язык : English
Default : Нет
Forced : Нет

Меню
00:00:00.000 : en:00:00:00.000
00:07:08.887 : en:00:07:08.887
00:13:29.017 : en:00:13:29.017
00:17:47.441 : en:00:17:47.441
00:24:03.275 : en:00:24:03.275
00:31:19.920 : en:00:31:19.920
00:36:56.756 : en:00:36:56.756
00:44:27.039 : en:00:44:27.039
00:52:50.626 : en:00:52:50.626
01:00:53.900 : en:01:00:53.900
01:07:27.710 : en:01:07:27.710
01:12:04.570 : en:01:12:04.570
01:15:24.311 : en:01:15:24.311
01:21:14.787 : en:01:21:14.787
01:27:12.644 : en:01:27:12.644
01:33:19.844 : en:01:33:19.844
Свернуть
Знаете ли вы, что...
Джеффу Бриджесу была предложена главная мужская роль, но он отказался.

Несколько раз показывают, как Кей готовит Арнольду завтрак. Она жарит одну полоску бекона и разбивает одно яйцо на сковородку, однако на тарелке у Арнольда можно заметить два яйца.

Когда расстроенная Кей гуляет под дождем, ее волосы мокрые и выглядят растрепанно. Когда она заходит в бар, она быстро проводит по ним рукой, и к тому времени, когда она садится (проходит пара секунд), ее волосы уже сухие и аккуратно уложены.

Почти в каждой уличной сцене у дома Кей и Арнольда можно заметить Buick и Subaru, припаркованные на подъездной дорожке перед гаражом. Однако, когда приезжает такси, чтобы забрать Кей в аэропорт и привезти ее и Арнольда обратно, машин там нет.
Предположительно они могли переставить машины в гараж, поскольку собирались уехать из города. Когда Кей собирается уехать, неизвестно ни ей, ни Арнольду, который собирался сопровождать ее.
Свернуть
Скриншоты
Изображение
Изображение
Изображение
Изображение
Изображение
Свернуть


Последний раз редактировалось krazz 2013-02-07 13:30, всего редактировалось 1 раз.
Не в сети
Профиль  
 Добавлено: 2013-02-07 12:44 (спустя 7 часов)
Модератор
Аватара пользователя
Стаж: 8 лет 11 месяцев
Сообщений: 516
Спасибок: 26888
Лайков: 1
С MediaInfo напутал :)
Не в сети
Профиль  
 Добавлено: 2013-02-07 13:31 (спустя 46 минут)
Аватара пользователя
Стаж: 9 лет 1 месяц
Сообщений: 8018
Спасибок: 122256
Лайков: 1194
-=Elis=-
исправлено :-[
Не в сети
Профиль  
Начать новую темуОтветить на тему  [ Сообщений: 3 ] 
Вы не можете начинать темы
Вы не можете отвечать на сообщения
Вы не можете редактировать свои сообщения
Вы не можете удалять свои сообщения