Правила форума

  • В этом разделе создание новых тем Запрещено.
  • Для создания новых тем пользуйтесь Корневым разделом DVD и HD фильмы.
Начать новую темуОтветить на тему  [ Сообщений: 2 ] 
Торрент файл
Размер: 3.56 GB • Зарегистрирован: 2 года 11 месяцев • Статус: Проверено
Скачан: 6 раз • Желающих скачать: 0 • Поблагодарили: 3 раза
 Раздают: 0  |  0 KB/s  ]   Качают: 0  |  0 KB/s  ] 
 Полного источника не было 1 год 5 месяцев 
Сообщения
 Добавлено: 2013-12-16 12:02
Аватара пользователя
Стаж: 7 лет 2 месяца
Сообщений: 7167
Спасибок: 82018
Лайков: 2438
Вид сверху лучше / View from the Top

Изображение


Год выпуска: 2003
Страна: США
Слоган: «Prepare for her arrival»
Жанр: мелодрама, комедия
Продолжительность: 01:27:10
Перевод: Профессиональный (дубляж) + Профессиональный (двухголосый закадровый) + Профессиональный (многоголосый закадровый) + Оригинальная звуковая дорожка
Субтитры: Русские, Английские

Режиссёр: Бруно Баррето
В ролях: Гвинет Пэлтроу, Кристина Эпплгейт, Марк Руффало, Кэндис Берген, Джошуа Малина, Келли Престон, Роб Лоу, Майк Майерс, Марк Блукас, Стейси Дэш, Джон Полито, Кончетта Томей
Описание: Провинциалка Донна сбегает из дома, чтобы стать стюардессой международных авиалиний. В Париже — шмотки, в Майами — море… Но все это еще далеко, а земля уже уходит из-под ног! Ну что, вид сверху лучше, Донна? И не ищи ответ в глазах инструктора! А лучше разбуди пилота…
Изображение

Качество: WEB-DL 720p
Формат: MKV
Видео кодек: H264 (AVC)
Аудио кодек: DTS, AC3 (Dolby Digital)
Видео: 1 280 x 542, 23.976 fps, 4 010 Kbps
Аудио #1: 48.0 KHz, 6 ch, 768 Kbps [Профессиональный (дубляж)] R5
Аудио #2: 48.0 KHz, 6 ch, 384 Kbps [Профессиональный (двухголосый закадровый)]
Аудио #3: 48.0 KHz, 2 ch, 192 Kbps [Профессиональный (многоголосый закадровый)] Украинский
Аудио #4: 48.0 KHz, 6 ch, 384 Kbps [Оригинальная звуковая дорожка]
Субтитры: Русские, Английские
Изображение
Скриншоты
Изображение

Изображение

Изображение

Изображение

Изображение

Изображение
Свернуть
Знаете ли Вы, что...
Фильм готовили выпустить к Рождеству 2001 года. Но после событий 11 сентября 2001 года студия решила отложить комедию на тему самолётов и авиалиний.

Ошибки в фильме

Несмотря на то, что фильм отсняли в 2001 году, в нём есть кадр, где видно банкноту номиналом в 5 евро, когда Донна пишет открытку из Парижа. Евро, как единица валюты, была официально пущена в обращение 1 января 2002 г.
Свернуть
MI
General
Unique ID : 192603465637319744880705256109203308572 (0x90E61404059229D3836BFA05687CC01C)
Complete name : Вид сверху лучше.2003.mkv
Format : Matroska
Format version : Version 2
File size : 3.56 GiB
Duration : 1h 27mn
Overall bit rate : 5 841 Kbps
Movie name : View from the Top (2003)
Encoded date : UTC 2012-10-23 10:21:10
Writing application : mkvmerge v5.7.0 ('The Whirlwind') built on Jul 8 2012 20:08:51
Writing library : libebml v1.2.3 + libmatroska v1.3.0

Video
ID : 1
Format : AVC
Format/Info : Advanced Video Codec
Format profile : Main@L3.1
Format settings, CABAC : No
Format settings, ReFrames : 2 frames
Codec ID : V_MPEG4/ISO/AVC
Duration : 1h 27mn
Bit rate : 4 010 Kbps
Width : 1 280 pixels
Height : 542 pixels
Display aspect ratio : 2.35:1
Frame rate : 23.976 fps
Color space : YUV
Chroma subsampling : 4:2:0
Bit depth : 8 bits
Scan type : Progressive
Bits/(Pixel*Frame) : 0.241
Stream size : 2.44 GiB (69%)
Language : English
Default : Yes
Forced : No
Color primaries : BT.709-5, BT.1361, IEC 61966-2-4, SMPTE RP177
Transfer characteristics : BT.709-5, BT.1361
Matrix coefficients : BT.709-5, BT.1361, IEC 61966-2-4 709, SMPTE RP177

Audio #1
ID : 2
Format : DTS
Format/Info : Digital Theater Systems
Codec ID : A_DTS
Duration : 1h 27mn
Bit rate mode : Constant
Bit rate : 755 Kbps
Channel(s) : 6 channels
Channel positions : Front: L C R, Side: L R, LFE
Sampling rate : 48.0 KHz
Bit depth : 24 bits
Compression mode : Lossy
Stream size : 470 MiB (13%)
Title : DTS 5.1 @ 768 kbps – Дубляж (R5)
Language : Russian
Default : Yes
Forced : No

Audio #2
ID : 3
Format : AC-3
Format/Info : Audio Coding 3
Mode extension : CM (complete main)
Format settings, Endianness : Big
Codec ID : A_AC3
Duration : 1h 27mn
Bit rate mode : Constant
Bit rate : 384 Kbps
Channel(s) : 6 channels
Channel positions : Front: L C R, Side: L R, LFE
Sampling rate : 48.0 KHz
Bit depth : 16 bits
Compression mode : Lossy
Stream size : 239 MiB (7%)
Title : DD 5.1 @ 384 kbps – Двухголосый закадровый
Language : Russian
Default : No
Forced : No

Audio #3
ID : 4
Format : AC-3
Format/Info : Audio Coding 3
Mode extension : CM (complete main)
Format settings, Endianness : Big
Codec ID : A_AC3
Duration : 1h 27mn
Bit rate mode : Constant
Bit rate : 192 Kbps
Channel(s) : 2 channels
Channel positions : Front: L R
Sampling rate : 48.0 KHz
Bit depth : 16 bits
Compression mode : Lossy
Stream size : 120 MiB (3%)
Title : DD 2.0 @ 192 kbps – Многоголосый закадровый (Новый канал)
Language : Ukrainian
Default : No
Forced : No

Audio #4
ID : 5
Format : AC-3
Format/Info : Audio Coding 3
Mode extension : CM (complete main)
Format settings, Endianness : Big
Codec ID : A_AC3
Duration : 1h 27mn
Bit rate mode : Constant
Bit rate : 384 Kbps
Channel(s) : 6 channels
Channel positions : Front: L C R, Side: L R, LFE
Sampling rate : 48.0 KHz
Bit depth : 16 bits
Compression mode : Lossy
Stream size : 239 MiB (7%)
Title : DD 5.1 @ 384 kbps
Language : English
Default : No
Forced : No

Text #1
ID : 6
Format : UTF-8
Codec ID : S_TEXT/UTF8
Codec ID/Info : UTF-8 Plain Text
Title : R5
Language : Russian
Default : No
Forced : No

Text #2
ID : 7
Format : UTF-8
Codec ID : S_TEXT/UTF8
Codec ID/Info : UTF-8 Plain Text
Language : English
Default : No
Forced : No

Menu
00:00:00.000 : en:Chapter 1
00:10:00.000 : en:Chapter 2
00:19:07.000 : en:Chapter 3
00:28:49.000 : en:Chapter 4
00:37:28.000 : en:Chapter 5
00:46:52.000 : en:Chapter 6
00:56:16.000 : en:Chapter 7
01:05:04.000 : en:Chapter 8
01:14:47.000 : en:Chapter 9
01:19:47.000 : en:Chapter 10
Свернуть
 zima-letoru, rotametr и Ctrl-Alt нравится это.
Не в сети
Профиль  
 Добавлено: 2013-12-16 17:56 (спустя 5 часов)
Стаж: 2 года 11 месяцев
Сообщений: 21
спасибо
_________________
Быстрый , стабильный заработок , без начальных вложений , до 30 $ в день , попробуйте и убедитесь сами
http://vk.com/club63014972, здесь все подробно описано , начните зарабатывать уже сегодня.
если что-то непонятно , постучите в скайп rinat_flash , все объясню и покажу.
Не в сети
Профиль  
Начать новую темуОтветить на тему  [ Сообщений: 2 ] 
Вы не можете начинать темы
Вы не можете отвечать на сообщения
Вы не можете редактировать свои сообщения
Вы не можете удалять свои сообщения